<?xml version="1.0" standalone="no"?>
<!DOCTYPE svg PUBLIC "-//W3C//DTD SVG 1.1//EN" "http://www.w3.org/Graphics/SVG/1.1/DTD/svg11.dtd" >
<svg xmlns="http://www.w3.org/2000/svg">
<metadata></metadata>
<defs>
<font id="proxima_novasemibold_italic" horiz-adv-x="1189" >
<font-face units-per-em="2048" ascent="1618" descent="-430" />
<missing-glyph horiz-adv-x="528" />
<glyph horiz-adv-x="0" />
<glyph horiz-adv-x="682" />
<glyph unicode=" "  horiz-adv-x="528" />
<glyph unicode="&#x09;" horiz-adv-x="528" />
<glyph unicode="&#xa0;" horiz-adv-x="528" />
<glyph unicode="!" horiz-adv-x="499" d="M25 111q0 63 46 108t109 45q55 0 93 -38.5t38 -92.5q0 -64 -46 -110t-111 -46q-54 0 -91.5 39t-37.5 95zM139 420l170 946h262l-245 -946h-187z" />
<glyph unicode="&#x22;" horiz-adv-x="778" d="M236 801q24 407 26 444q3 61 42.5 101t98.5 40q44 0 75.5 -31t31.5 -77q0 -20 -14 -55l-164 -422h-96zM578 801q24 407 26 444q3 61 42.5 101t98.5 40q44 0 75.5 -31t31.5 -77q0 -20 -14 -55l-164 -422h-96z" />
<glyph unicode="#" horiz-adv-x="1243" d="M8 358l76 142h209l203 366h-209l73 142h215l197 358h164l-197 -358h207l197 358h164l-199 -358h207l-72 -142h-213l-205 -366h215l-73 -142h-219l-199 -358h-164l201 358h-209l-199 -358h-164l199 358h-205zM457 500h205l204 366h-207z" />
<glyph unicode="$" horiz-adv-x="1239" d="M31 227l151 174q103 -142 303 -194l86 395q-62 24 -105 44t-94.5 53t-82.5 68t-52.5 86t-21.5 110q0 82 37 159t102 136t163 95t212 36h19l40 184h164l-45 -205q218 -48 344 -199l-153 -172q-86 108 -240 156l-80 -356q63 -25 106.5 -45.5t96 -54t84.5 -69t54 -87 t22 -111.5q0 -90 -35.5 -171.5t-100 -145t-164.5 -101t-220 -37.5h-25l-39 -180h-164l43 199q-134 26 -240.5 87t-164.5 146zM469 1004q0 -46 41.5 -80.5t118.5 -67.5l71 322h-6q-95 0 -160 -52t-65 -122zM643 188q119 1 181.5 61.5t62.5 135.5q0 50 -42 86.5t-122 71.5z " />
<glyph unicode="%" horiz-adv-x="1529" d="M154 0l1173 1366h139l-1175 -1366h-137zM172 989q0 115 52.5 207t137 141t183.5 49q134 0 226.5 -76.5t92.5 -203.5q0 -173 -110 -285t-262 -112q-133 0 -226.5 77.5t-93.5 202.5zM332 1004q0 -68 46 -113t118 -45q87 0 148 69.5t61 176.5q0 69 -46 114t-118 45 q-86 0 -147.5 -70t-61.5 -177zM745 256q0 174 109.5 285.5t263.5 111.5q134 0 226 -76.5t92 -203.5q0 -173 -110 -285.5t-263 -112.5q-133 0 -225.5 77.5t-92.5 203.5zM903 270q0 -68 47 -112.5t119 -44.5q86 0 147.5 69.5t61.5 175.5q0 69 -47 114.5t-119 45.5 q-85 0 -147 -71t-62 -177z" />
<glyph unicode="&#x26;" horiz-adv-x="1320" d="M20 328q0 95 31.5 170t91.5 128.5t123 88.5t150 69q-39 122 -39 226q0 157 117 266.5t282 109.5q91 0 165.5 -28.5t121.5 -89t47 -144.5q0 -40 -8.5 -75.5t-20.5 -63.5t-35.5 -55t-44 -47t-55.5 -41t-60 -34t-67.5 -31t-68.5 -27.5t-72 -26.5q41 -84 88 -164 q72 -129 108 -184q123 135 201 272l156 -98q-140 -203 -260 -320q62 -94 166 -229h-263q-5 7 -29.5 39.5t-39.5 52.5q-172 -117 -356 -117q-123 0 -218 37t-153 118t-58 198zM258 354q0 -98 64 -152.5t159 -54.5q106 0 228 84q-96 147 -127 203q-64 110 -109 205 q-102 -49 -158.5 -117t-56.5 -168zM594 1010q0 -63 27 -152q70 25 115.5 45.5t89.5 50t65.5 66.5t21.5 84q0 59 -37 92t-94 33q-72 0 -130 -59t-58 -160z" />
<glyph unicode="'" horiz-adv-x="438" d="M236 801q24 407 26 444q3 61 42.5 101t98.5 40q44 0 75.5 -31t31.5 -77q0 -20 -14 -55l-164 -422h-96z" />
<glyph unicode="(" horiz-adv-x="565" d="M49 205q0 319 144.5 633t402.5 565l111 -113q-433 -540 -433 -1149q0 -211 78 -460l-153 -89q-72 121 -111 281t-39 332z" />
<glyph unicode=")" horiz-adv-x="567" d="M-143 -295q432 542 432 1151q0 210 -78 459l156 88q71 -120 109 -279.5t38 -332.5q0 -319 -144 -634t-403 -565z" />
<glyph unicode="*" horiz-adv-x="710" d="M166 1008l225 82l-180 122l78 91l164 -142l41 225h114l-63 -235l219 102l35 -104l-224 -80l177 -125l-78 -90l-164 141l-39 -225h-117l64 236l-219 -101z" />
<glyph unicode="+" horiz-adv-x="1028" d="M86 623l31 137h379l90 411h151l-90 -411h379l-31 -137h-379l-94 -426h-151l94 426h-379z" />
<glyph unicode="," horiz-adv-x="501" d="M-37 -176q60 29 114.5 76t74.5 96h-19q-46 0 -78 31.5t-32 85.5q0 62 48 106.5t109 44.5q57 0 97 -38t40 -107q0 -107 -79 -214t-195 -165z" />
<glyph unicode="-" horiz-adv-x="614" d="M41 403l39 185h491l-39 -185h-491z" />
<glyph unicode="." horiz-adv-x="503" d="M25 111q0 63 46 108t109 45q55 0 93 -38.5t38 -92.5q0 -64 -46 -110t-111 -46q-54 0 -91.5 39t-37.5 95z" />
<glyph unicode="/" horiz-adv-x="645" d="M-123 -41l805 1448h168l-807 -1448h-166z" />
<glyph unicode="0" horiz-adv-x="1263" d="M102 518q0 107 21.5 213.5t61.5 202.5t100 179t132 143.5t162.5 95t188.5 34.5q221 0 346 -142.5t125 -397.5q0 -128 -30 -254.5t-88 -237t-136.5 -196t-184 -134.5t-222.5 -49q-221 0 -348.5 144.5t-127.5 398.5zM344 506q0 -145 62.5 -231.5t191.5 -86.5q90 0 167.5 64 t126 164t76 216t27.5 226q0 145 -61.5 230.5t-190.5 85.5q-73 0 -138 -41.5t-111.5 -110.5t-81 -156t-51.5 -179.5t-17 -180.5z" />
<glyph unicode="1" horiz-adv-x="778" d="M135 969l479 397h209l-301 -1366h-239l233 1057l-274 -234z" />
<glyph unicode="2" horiz-adv-x="1218" d="M-8 0l49 227q161 94 265.5 157.5t219 138t183 130t128 116t85.5 115t26 107.5q0 86 -74 135.5t-192 49.5q-201 0 -346 -127l-105 172q85 77 210 121t257 44q100 0 189 -24t159 -70t111 -119t41 -165q0 -84 -39 -169t-105.5 -162t-167.5 -159t-212 -154t-252 -153h606 l-47 -211h-989z" />
<glyph unicode="3" horiz-adv-x="1175" d="M-18 260l165 141q57 -99 168.5 -156t231.5 -57q130 0 203 64.5t73 167.5q0 78 -68 125t-204 47q-110 0 -150 -4l50 217q20 -2 188 -2q129 0 211 48.5t82 145.5q0 78 -78.5 128.5t-210.5 50.5q-194 0 -338 -121l-90 162q84 79 202.5 124t248.5 45q232 0 372 -93t140 -257 q0 -93 -56.5 -170.5t-139.5 -121t-175 -52.5q113 -27 183.5 -101.5t70.5 -193.5q0 -180 -147 -301t-365 -121q-186 0 -342.5 77t-224.5 208z" />
<glyph unicode="4" horiz-adv-x="1187" d="M14 309l49 213l734 844h342l-187 -846h183l-48 -211h-182l-67 -309h-240l68 309h-652zM297 520h416l139 631z" />
<glyph unicode="5" horiz-adv-x="1228" d="M53 244l172 147q56 -99 151 -151t222 -52q128 0 210.5 77.5t82.5 191.5q0 101 -77.5 158t-201.5 57q-79 0 -140.5 -21t-125.5 -67l-153 65l155 717h895l-45 -211h-655l-84 -377q111 90 278 90q172 0 288 -102.5t116 -282.5q0 -137 -68 -252.5t-194.5 -185.5t-286.5 -70 q-376 0 -539 269z" />
<glyph unicode="6" horiz-adv-x="1230" d="M94 494q0 127 28 253t87 241.5t141.5 204t199.5 141t253 52.5q288 0 436 -192l-152 -168q-44 71 -123 109.5t-178 38.5q-82 0 -152.5 -35.5t-121 -96t-85.5 -130t-58 -148.5q-14 -41 -15 -49q61 64 162.5 110.5t208.5 46.5q185 0 305.5 -101t120.5 -269 q0 -141 -73.5 -262t-201 -193t-276.5 -72q-239 0 -372.5 136.5t-133.5 382.5zM328 465q0 -125 75 -201t199 -76q127 0 213 83.5t86 199.5q0 94 -79 150.5t-201 56.5q-160 0 -291 -131q-2 -16 -2 -82z" />
<glyph unicode="7" horiz-adv-x="1089" d="M129 0l768 1155h-696l45 211h985l-37 -166l-788 -1200h-277z" />
<glyph unicode="8" horiz-adv-x="1220" d="M45 334q0 141 104.5 246.5t288.5 148.5q-94 41 -157.5 114.5t-63.5 166.5q0 77 30.5 140.5t81 106.5t117.5 72.5t139.5 43t147.5 13.5q96 0 184.5 -22t161 -63t115.5 -108.5t43 -150.5q0 -138 -100.5 -233.5t-268.5 -126.5q104 -51 172 -131.5t68 -183.5 q0 -116 -75.5 -207t-196.5 -138t-263 -47q-108 0 -201.5 22.5t-167.5 65.5t-116.5 112.5t-42.5 158.5zM299 379q0 -91 79 -141t204 -50q112 0 199 56.5t87 146.5q0 51 -39 96t-90 71.5t-108 41.5q-144 -9 -238 -68.5t-94 -152.5zM457 983q0 -62 69 -113t150 -71 q137 9 220 61.5t83 138.5q0 75 -75.5 125t-186.5 50q-107 0 -183.5 -52.5t-76.5 -138.5z" />
<glyph unicode="9" horiz-adv-x="1230" d="M70 172l151 166q46 -70 125 -109t176 -39q66 0 125.5 24t104.5 63.5t82.5 93.5t63 111.5t42.5 119.5q9 21 14 49q-59 -64 -160.5 -110.5t-209.5 -46.5q-185 0 -304.5 100t-119.5 268q0 141 73 262.5t199.5 193t276.5 71.5q239 0 372 -136.5t133 -382.5q0 -127 -28 -252.5 t-86.5 -241.5t-140.5 -204.5t-199 -141.5t-252 -53q-287 0 -438 195zM410 893q0 -94 78 -149.5t202 -55.5q161 0 289 131q4 32 4 82q0 125 -75 200t-201 75t-211.5 -83t-85.5 -200z" />
<glyph unicode=":" horiz-adv-x="485" d="M25 111q0 63 46 108t109 45q55 0 93 -38.5t38 -92.5q0 -64 -46 -110t-111 -46q-54 0 -91.5 39t-37.5 95zM186 850q0 64 46.5 110t111.5 46q54 0 91.5 -39t37.5 -95q0 -63 -46.5 -108t-109.5 -45q-55 0 -93 38.5t-38 92.5z" />
<glyph unicode=";" horiz-adv-x="501" d="M-37 -176q60 29 114.5 76t74.5 96h-19q-46 0 -78 31.5t-32 85.5q0 62 48 106.5t109 44.5q57 0 97 -38t40 -107q0 -107 -79 -214t-195 -165zM186 850q0 64 46.5 110t111.5 46q54 0 91.5 -39t37.5 -95q0 -63 -46.5 -108t-109.5 -45q-55 0 -93 38.5t-38 92.5z" />
<glyph unicode="&#x3c;" horiz-adv-x="1028" d="M82 608l35 156l1003 424l-39 -172l-819 -338l670 -336l-35 -158z" />
<glyph unicode="=" horiz-adv-x="1028" d="M41 420l31 139h909l-31 -139h-909zM127 811l31 137h909l-31 -137h-909z" />
<glyph unicode="&#x3e;" horiz-adv-x="1028" d="M-12 184l39 172l823 336l-674 338l35 158l815 -424l-35 -156z" />
<glyph unicode="?" horiz-adv-x="940" d="M178 1227q179 159 414 159q119 0 215 -36t152.5 -105t56.5 -160q0 -74 -26.5 -133t-69.5 -98t-94.5 -71t-103 -58.5t-94.5 -53t-69.5 -62.5t-26.5 -79q0 -36 27 -67l-194 -62q-39 62 -39 146q0 60 24 109.5t62 82.5t84.5 61t93 52.5t84.5 50t62 60t24 75.5 q0 63 -52.5 100.5t-150.5 37.5q-157 0 -276 -113zM233 111q0 63 46.5 108t111.5 45q54 0 91.5 -38.5t37.5 -92.5q0 -64 -46 -110t-109 -46q-55 0 -93.5 39t-38.5 95z" />
<glyph unicode="@" horiz-adv-x="1603" d="M113 500q0 215 114 402t301.5 296t397.5 109q191 0 339.5 -86.5t227 -231t78.5 -319.5q0 -119 -35 -216.5t-91 -157t-122.5 -91t-134.5 -31.5q-84 0 -134.5 46t-58.5 112l-2 14q-55 -78 -137 -125t-170 -47q-146 0 -231.5 94.5t-85.5 245.5q0 136 67.5 254t176 186 t227.5 68q92 0 158.5 -41t101.5 -107l22 117h193l-111 -524q-4 -20 -4 -45q0 -48 23.5 -73t60.5 -25q32 0 66.5 19t67 58t53 109.5t20.5 161.5q0 248 -156.5 403.5t-414.5 155.5q-144 0 -279 -60t-233.5 -159.5t-158 -233t-59.5 -274.5q0 -160 74.5 -291.5t208 -207 t299.5 -75.5q198 0 375 115l41 -59q-200 -129 -426 -129q-183 0 -332 85t-233 232t-84 326zM569 528q0 -89 50 -143.5t137 -54.5q83 0 149 44.5t111 110.5l53 258q-18 48 -65.5 85.5t-118.5 37.5q-133 0 -224.5 -102.5t-91.5 -235.5z" />
<glyph unicode="A" horiz-adv-x="1378" d="M-109 0l840 1366h299l236 -1366h-260l-43 264h-627l-158 -264h-287zM451 475h491l-102 651z" />
<glyph unicode="B" horiz-adv-x="1329" d="M35 0l301 1366h622q163 0 263 -92.5t100 -229.5t-93 -241.5t-220 -118.5q89 -24 142.5 -102.5t53.5 -173.5q0 -77 -27.5 -147.5t-82 -130t-148 -95t-213.5 -35.5h-698zM322 211h397q113 0 178.5 63.5t65.5 153.5q0 72 -48.5 118t-130.5 46h-378zM453 803h391 q60 0 104 17.5t68 47.5t35.5 64.5t11.5 73.5q0 64 -48.5 106.5t-119.5 42.5h-365z" />
<glyph unicode="C" horiz-adv-x="1396" d="M104 582q0 178 64.5 331t172.5 256t250.5 161.5t297.5 58.5q217 0 366 -99t220 -260l-230 -82q-48 112 -145.5 170t-222.5 58q-102 0 -197 -43t-166.5 -118t-114.5 -184.5t-43 -234.5q0 -180 113.5 -294t302.5 -114q93 0 183 41.5t159 116.5l182 -129 q-107 -125 -250 -183.5t-286 -58.5q-186 0 -335 74t-235 213t-86 320z" />
<glyph unicode="D" horiz-adv-x="1454" d="M35 0l301 1366h498q114 0 219.5 -43t185.5 -118.5t128 -186t48 -236.5q0 -113 -30.5 -221.5t-98.5 -211t-167.5 -179.5t-248.5 -123.5t-329 -46.5h-506zM322 211h262q132 0 242.5 44.5t184.5 120.5t115 177t41 213q0 168 -107 278.5t-269 110.5h-261z" />
<glyph unicode="E" horiz-adv-x="1181" d="M35 0l301 1366h936l-45 -211h-697l-77 -352h682l-48 -211h-681l-84 -381h696l-47 -211h-936z" />
<glyph unicode="F" horiz-adv-x="1153" d="M35 0l301 1366h936l-45 -211h-697l-77 -352h682l-48 -211h-681l-132 -592h-239z" />
<glyph unicode="G" horiz-adv-x="1468" d="M104 582q0 230 106 415t290 288.5t409 103.5q196 0 338.5 -90.5t212.5 -231.5l-217 -94q-43 92 -143 147.5t-223 55.5q-137 0 -256.5 -74.5t-192 -208.5t-72.5 -297q0 -178 113.5 -293t302.5 -115q172 0 311 121l47 215h-409l47 211h647l-115 -518q-104 -116 -242.5 -179 t-297.5 -63q-187 0 -336 74.5t-234.5 213.5t-85.5 319z" />
<glyph unicode="H" horiz-adv-x="1480" d="M35 0l301 1366h239l-122 -557h710l123 557h240l-301 -1366h-240l131 598h-710l-132 -598h-239z" />
<glyph unicode="I" horiz-adv-x="530" d="M35 0l301 1366h239l-301 -1366h-239z" />
<glyph unicode="J" horiz-adv-x="987" d="M-53 137l135 178q34 -58 96 -92.5t139 -34.5q107 0 176 67t95 181l205 930h239l-207 -932q-52 -233 -173.5 -346t-319.5 -113q-119 0 -222.5 41.5t-162.5 120.5z" />
<glyph unicode="K" horiz-adv-x="1271" d="M35 0l301 1366h239l-139 -631l662 631h309l-696 -643l438 -723h-283l-336 586l-159 -150l-97 -436h-239z" />
<glyph unicode="L" horiz-adv-x="1036" d="M18 0l301 1366h240l-254 -1155h602l-47 -211h-842z" />
<glyph unicode="M" horiz-adv-x="1710" d="M35 0l301 1366h330l163 -938l580 938h346l-301 -1366h-240l234 1055l-651 -1055h-103l-186 1055l-234 -1055h-239z" />
<glyph unicode="N" horiz-adv-x="1474" d="M35 0l301 1366h246l485 -958l213 958h240l-301 -1366h-232l-493 989l-220 -989h-239z" />
<glyph unicode="O" horiz-adv-x="1566" d="M104 582q0 223 104 408.5t284 292t397 106.5q183 0 330.5 -71.5t235 -210.5t87.5 -323q0 -222 -103 -408t-283 -293.5t-396 -107.5q-137 0 -257 42.5t-208.5 119.5t-139.5 192t-51 253zM356 596q0 -187 118 -297.5t298 -110.5q105 0 200.5 44.5t165.5 121t111 185 t41 229.5q0 189 -118 298.5t-300 109.5q-105 0 -200.5 -44.5t-164.5 -121t-110 -185t-41 -229.5z" />
<glyph unicode="P" horiz-adv-x="1247" d="M35 0l301 1366h586q158 0 264 -108t106 -259q0 -65 -17 -130t-58.5 -130.5t-102 -115t-156.5 -80.5t-213 -31h-358l-113 -512h-239zM434 723h326q128 0 205 72t77 180q0 77 -55 128.5t-139 51.5h-318z" />
<glyph unicode="Q" horiz-adv-x="1566" d="M104 582q0 223 104 408.5t284 292t397 106.5q183 0 330.5 -71.5t235 -210.5t87.5 -323q0 -197 -82.5 -367t-226.5 -282l76 -112l-191 -99l-71 107q-141 -56 -287 -56q-137 0 -257 42.5t-208.5 119.5t-139.5 192t-51 253zM356 596q0 -187 118 -297.5t298 -110.5 q77 0 154 25l-138 209l193 96l127 -194q85 80 133.5 195t48.5 249q0 189 -118 298.5t-300 109.5q-105 0 -200.5 -44.5t-164.5 -121t-110 -185t-41 -229.5z" />
<glyph unicode="R" horiz-adv-x="1288" d="M35 0l301 1366h549q79 0 152.5 -26t130 -72.5t90.5 -118t34 -156.5q0 -185 -115.5 -314.5t-297.5 -152.5l215 -526h-267l-190 510h-250l-113 -510h-239zM434 721h326h2q130 0 205 71t75 179q0 79 -59.5 131.5t-138.5 52.5h-314z" />
<glyph unicode="S" horiz-adv-x="1216" d="M14 227l152 174q71 -98 193.5 -155.5t263.5 -57.5q121 0 184 60.5t63 136.5q0 40 -29 73.5t-76 56.5t-107.5 48t-123 47.5t-123 56t-107.5 72t-76 96.5t-29 128q0 82 37 159t102 136t163 95t212 36q160 0 298.5 -58.5t223.5 -161.5l-154 -172q-70 88 -180 134.5 t-223 46.5q-95 0 -160 -52t-65 -122q0 -42 37 -76t96 -60t130.5 -52.5t143.5 -60.5t131 -75.5t96 -105.5t37 -144q0 -90 -35.5 -171.5t-100 -145t-164.5 -101t-220 -37.5q-190 0 -350.5 70t-239.5 182z" />
<glyph unicode="T" horiz-adv-x="1181" d="M203 1155l45 211h1067l-45 -211h-414l-256 -1155h-240l256 1155h-413z" />
<glyph unicode="U" horiz-adv-x="1474" d="M143 442q0 36 11 99l182 825h244l-183 -821q-8 -48 -8 -74q2 -124 87.5 -204.5t236.5 -80.5q162 0 253 93t130 266l180 821h244l-183 -825q-23 -104 -56 -187.5t-84.5 -155.5t-118.5 -120.5t-159.5 -75.5t-205.5 -27q-272 0 -421 126t-149 341z" />
<glyph unicode="V" horiz-adv-x="1378" d="M195 1366h260l170 -1104l657 1104h285l-838 -1366h-299z" />
<glyph unicode="W" horiz-adv-x="1849" d="M205 1366h260l35 -1051l514 1051h190l51 -1051l498 1051h275l-693 -1366h-256l-43 1010l-487 -1010h-256z" />
<glyph unicode="X" horiz-adv-x="1353" d="M-104 0l673 717l-340 649h271l254 -492l448 492h305l-633 -678l363 -688h-272l-277 526l-489 -526h-303z" />
<glyph unicode="Y" horiz-adv-x="1304" d="M195 1366h260l245 -584l504 584h289l-705 -799l-124 -567h-240l125 567z" />
<glyph unicode="Z" horiz-adv-x="1206" d="M-20 0l43 195l897 960h-684l47 211h1009l-43 -192l-897 -963h699l-45 -211h-1026z" />
<glyph unicode="[" horiz-adv-x="542" d="M-109 -389l396 1778h415l-32 -148h-256l-330 -1483h258l-35 -147h-416z" />
<glyph unicode="\" horiz-adv-x="645" d="M201 1407h159l164 -1448h-159z" />
<glyph unicode="]" horiz-adv-x="542" d="M-162 -389l33 147h258l328 1483h-256l32 148h416l-395 -1778h-416z" />
<glyph unicode="^" horiz-adv-x="894" d="M78 682l483 684h158l176 -684h-156l-125 535l-362 -535h-174z" />
<glyph unicode="_" horiz-adv-x="1155" d="M-168 -229l35 147h1165l-33 -147h-1167z" />
<glyph unicode="`" horiz-adv-x="491" d="M207 1434h205l221 -295h-154z" />
<glyph unicode="a" d="M66 385q0 116 36 228t100.5 201.5t164.5 144.5t219 55q106 0 191.5 -44t135.5 -122l31 141h215l-219 -989h-215l31 131q-131 -156 -312 -156q-170 0 -274 109t-104 301zM291 428q0 -118 68.5 -190t175.5 -72q76 0 144.5 39.5t115.5 101.5l84 383q-35 59 -104 96t-157 37 q-94 0 -170 -56t-116.5 -146t-40.5 -193z" />
<glyph unicode="b" d="M29 0l301 1366h215l-111 -508q128 156 309 156q172 0 275.5 -108t103.5 -300q0 -117 -35.5 -229t-100 -202t-165 -145t-219.5 -55q-105 0 -191.5 44.5t-136.5 121.5l-30 -141h-215zM309 301q35 -60 104 -97.5t156 -37.5q142 0 235 118.5t93 278.5q0 119 -67.5 189.5 t-176.5 70.5q-75 0 -144 -39t-114 -100z" />
<glyph unicode="c" horiz-adv-x="1019" d="M68 422q0 161 75 297t206 215.5t288 79.5q139 0 236 -51t151 -140l-162 -123q-33 59 -92.5 91t-132.5 32q-155 0 -251.5 -115t-96.5 -276q0 -125 77 -195.5t195 -70.5q136 0 227 108l117 -143q-148 -156 -364 -156q-213 0 -343 122t-130 325z" />
<glyph unicode="d" d="M66 385q0 116 36 228t100.5 201.5t164.5 144.5t219 55q106 0 191.5 -44t135.5 -122l115 518h215l-303 -1366h-215l31 131q-131 -156 -312 -156q-170 0 -274 109t-104 301zM291 428q0 -118 68.5 -190t175.5 -72q76 0 144.5 39.5t115.5 101.5l84 383q-35 59 -104 96 t-157 37q-94 0 -170 -56t-116.5 -146t-40.5 -193z" />
<glyph unicode="e" horiz-adv-x="1140" d="M68 418q0 160 73.5 297t203.5 218t288 81q195 0 316.5 -119t121.5 -317q0 -77 -20 -154h-764q-2 -6 -2 -33q0 -95 79 -167t220 -72q71 0 142.5 22t121.5 62l70 -152q-71 -50 -164.5 -79.5t-186.5 -29.5q-229 0 -364 120t-135 323zM309 578h563h5q0 3 1 13t1 13 q0 101 -68.5 167.5t-192.5 66.5q-115 0 -202.5 -77t-106.5 -183z" />
<glyph unicode="f" horiz-adv-x="632" d="M82 0l176 803h-164l43 186h162l12 58q82 339 353 339q157 0 249 -92l-110 -129q-45 45 -117 45q-66 0 -103.5 -40.5t-56.5 -125.5l-12 -55h203l-43 -186h-201l-176 -803h-215z" />
<glyph unicode="g" d="M-29 -231l129 143q48 -67 136 -102t194 -35q242 0 303 276l25 109q-58 -74 -140.5 -116t-177.5 -42q-77 0 -143.5 24t-118.5 71.5t-82 126.5t-30 182q0 92 22.5 181t67 166t105.5 135.5t143.5 92t175.5 33.5q95 0 185 -45.5t146 -120.5l33 141h215l-209 -938 q-23 -103 -64 -182.5t-90.5 -129.5t-111 -82.5t-122.5 -45t-128 -12.5q-309 0 -463 170zM291 444q0 -115 67.5 -183t178.5 -68q71 0 140.5 37.5t117.5 95.5l79 358q-37 64 -109.5 101.5t-160.5 37.5q-137 0 -225 -111.5t-88 -267.5z" />
<glyph unicode="h" horiz-adv-x="1163" d="M31 0l301 1366h215l-115 -510q166 158 338 158q139 0 222 -66t83 -182q0 -44 -12 -84l-150 -682h-215l138 623q8 32 8 61q0 71 -50.5 105t-134.5 34q-129 0 -262 -133l-151 -690h-215z" />
<glyph unicode="i" horiz-adv-x="493" d="M29 0l219 989h215l-219 -989h-215zM274 1225q0 67 48 109t104 42q52 0 86.5 -33t34.5 -81q0 -67 -48 -109.5t-104 -42.5q-52 0 -86.5 34t-34.5 81z" />
<glyph unicode="j" horiz-adv-x="493" d="M-381 -317l94 153q48 -61 133 -61q131 0 170 168l232 1046h215l-232 -1046q-37 -167 -121 -255.5t-233 -88.5q-174 0 -258 84zM274 1225q0 67 48 109t104 42q52 0 86.5 -33t34.5 -81q0 -67 -48 -109.5t-104 -42.5q-52 0 -86.5 34t-34.5 81z" />
<glyph unicode="k" horiz-adv-x="1079" d="M29 0l301 1366h215l-187 -840l533 463h274l-510 -448l299 -541h-258l-217 416l-176 -150l-59 -266h-215z" />
<glyph unicode="l" horiz-adv-x="493" d="M29 0l301 1366h215l-301 -1366h-215z" />
<glyph unicode="m" horiz-adv-x="1708" d="M29 0l219 989h215l-31 -133q147 158 305 158q65 0 120 -22t86 -53.5t48 -63t17 -54.5v-4q164 197 338 197q114 0 194 -66t80 -182q0 -24 -12 -84l-150 -682h-215l139 631q7 35 7 53q0 65 -44 102t-110 37q-61 0 -123 -38t-108 -95l-154 -690h-215l139 631q8 31 8 59 q0 60 -41 96.5t-114 36.5q-60 0 -121.5 -38t-108.5 -95l-153 -690h-215z" />
<glyph unicode="n" horiz-adv-x="1163" d="M29 0l219 989h215l-31 -133q166 158 338 158q139 0 222 -66t83 -182q0 -38 -12 -84l-150 -682h-215l138 621q8 40 8 63q0 71 -50.5 105t-134.5 34q-70 0 -138 -38t-124 -95l-153 -690h-215z" />
<glyph unicode="o" horiz-adv-x="1175" d="M68 422q0 115 42.5 222.5t115.5 189.5t179 131t226 49q221 0 347 -123t126 -322q0 -115 -42.5 -223t-115.5 -190t-179 -131.5t-226 -49.5q-221 0 -347 124t-126 323zM291 430q0 -122 68.5 -193t189.5 -71q94 0 171.5 56.5t119 146t41.5 190.5q0 122 -68.5 193t-189.5 71 q-142 0 -237 -118t-95 -275z" />
<glyph unicode="p" horiz-adv-x="1185" d="M-55 -377l303 1366h215l-29 -131q128 156 309 156q172 0 275.5 -108t103.5 -300q0 -117 -35.5 -229t-100 -202t-165 -145t-219.5 -55q-105 0 -191.5 44.5t-136.5 121.5l-114 -518h-215zM309 301q35 -60 104 -97.5t156 -37.5q142 0 235 118.5t93 278.5q0 119 -67.5 189.5 t-176.5 70.5q-75 0 -144 -39t-114 -100z" />
<glyph unicode="q" horiz-adv-x="1185" d="M66 385q0 116 36 228t100.5 201.5t164.5 144.5t219 55q106 0 191.5 -44t135.5 -122l31 141h215l-303 -1366h-215l115 508q-131 -156 -312 -156q-170 0 -274 109t-104 301zM291 428q0 -118 68.5 -190t175.5 -72q76 0 144.5 39.5t115.5 101.5l84 383q-35 59 -104 96 t-157 37q-94 0 -170 -56t-116.5 -146t-40.5 -193z" />
<glyph unicode="r" horiz-adv-x="710" d="M29 0l219 989h215l-31 -137q72 80 157 121t202 41l-50 -217q-35 10 -86 10q-75 0 -146 -39t-118 -98l-147 -670h-215z" />
<glyph unicode="s" horiz-adv-x="966" d="M-8 154l127 147q47 -60 141.5 -107t196.5 -47q82 0 131 39t49 95q0 31 -28 56.5t-73.5 43.5t-100 36.5t-109 42t-100 52.5t-73.5 75.5t-28 104.5q0 134 106 228t287 94q123 0 231 -44.5t173 -115.5l-117 -143q-35 53 -119 93t-174 40q-80 0 -126 -33t-46 -84 q0 -29 28 -52.5t73 -41.5t99.5 -36.5t109 -43t99.5 -54.5t73 -78t28 -108q0 -143 -111 -240.5t-301 -97.5q-136 0 -252.5 46t-193.5 133z" />
<glyph unicode="t" horiz-adv-x="653" d="M86 803l43 186h164l59 271h215l-59 -271h201l-43 -186h-201l-113 -510q-4 -24 -4 -37q0 -42 25 -66t73 -24q46 0 82 27l13 -173q-61 -45 -156 -45q-124 0 -195 50.5t-71 150.5q0 26 6 64l125 563h-164z" />
<glyph unicode="u" horiz-adv-x="1161" d="M86 225q0 32 10 82l152 682h215l-137 -618q-11 -55 -11 -64q0 -71 51 -106t134 -35q69 0 138.5 38.5t125.5 96.5l151 688h215l-219 -989h-215l31 135q-168 -160 -338 -160q-139 0 -221 67t-82 183z" />
<glyph unicode="v" horiz-adv-x="1030" d="M104 989h224l123 -741l454 741h238l-623 -989h-231z" />
<glyph unicode="w" horiz-adv-x="1546" d="M119 989h217l49 -719l395 719h189l75 -719l369 719h232l-527 -989h-225l-72 725l-389 -725h-225z" />
<glyph unicode="x" horiz-adv-x="1017" d="M-100 0l475 508l-234 481h234l160 -334l309 334h250l-451 -481l254 -508h-233l-177 365l-337 -365h-250z" />
<glyph unicode="y" horiz-adv-x="1030" d="M-96 -379l71 189q39 -17 101 -17q40 0 70.5 18.5t62.5 63.5l78 119l-183 995h224l123 -741l454 741h238l-737 -1167q-73 -119 -156 -171t-195 -52q-87 0 -151 22z" />
<glyph unicode="z" horiz-adv-x="974" d="M-16 0l36 164l621 639h-479l43 186h776l-35 -155l-631 -646h494l-39 -188h-786z" />
<glyph unicode="{" horiz-adv-x="567" d="M-23 -145q0 27 7 59l86 383q4 24 4 37q0 45 -21.5 73.5t-58.5 28.5l29 127q56 0 90 38.5t47 100.5l86 381q34 153 127 229.5t231 76.5h125l-33 -148h-125q-64 0 -107.5 -40.5t-60.5 -115.5l-92 -419q-35 -150 -133 -183q60 -32 60 -112q0 -33 -9 -70l-86 -385 q-4 -24 -4 -41q0 -52 33 -84.5t84 -32.5h111l-33 -147h-96q-106 0 -183.5 69t-77.5 175z" />
<glyph unicode="|" horiz-adv-x="438" d="M186 -41v1448h148v-1448h-148z" />
<glyph unicode="}" horiz-adv-x="567" d="M-164 -389l33 147h125q64 0 107.5 40.5t60.5 115.5l92 420q35 149 133 182q-59 32 -59 113q0 36 8 69l86 385q4 24 4 41q0 52 -33 84.5t-84 32.5h-110l32 148h97q106 0 183 -69t77 -175q0 -28 -8 -60l-84 -383q-4 -24 -4 -34q0 -46 21 -75.5t58 -29.5l-28 -127 q-56 0 -90 -38.5t-47 -100.5l-87 -381q-34 -153 -127 -229t-231 -76h-125z" />
<glyph unicode="~" horiz-adv-x="1038" d="M135 870q108 494 379 494q68 0 111.5 -28t59.5 -69.5t26.5 -90t15.5 -90t23.5 -69.5t52.5 -28q65 0 126.5 108.5t96.5 268.5l145 -16q-111 -496 -376 -496q-59 0 -99.5 20.5t-59.5 53.5t-30 72.5t-16.5 79.5t-13 73t-25 53.5t-47.5 20.5q-65 0 -125.5 -106.5 t-95.5 -268.5z" />
<glyph unicode="&#xa1;" horiz-adv-x="499" d="M-76 -377l248 948h186l-170 -948h-264zM186 858q0 63 46.5 108.5t111.5 45.5q54 0 91.5 -38.5t37.5 -92.5q0 -64 -46.5 -110t-109.5 -46q-55 0 -93 38.5t-38 94.5z" />
<glyph unicode="&#xa2;" horiz-adv-x="1019" d="M68 422q0 156 72 290.5t198 215.5t278 86l33 143h160l-35 -158q166 -41 250 -176l-162 -123q-49 80 -131 107l-143 -641q117 11 200 108l117 -143q-146 -153 -360 -156l-39 -180h-160l43 199q-149 39 -235 151.5t-86 276.5zM289 432q0 -88 38.5 -150t106.5 -92l139 627 q-129 -24 -206.5 -133.5t-77.5 -251.5z" />
<glyph unicode="&#xa3;" horiz-adv-x="1097" d="M18 156q135 57 223.5 156.5t88.5 203.5q0 6 -1 17.5t-1 17.5h-273l31 141h193q-5 9 -19.5 37t-20.5 40t-17 37.5t-16 43.5t-9 43.5t-4 50.5q0 118 69.5 220t189.5 162t261 60q108 0 201.5 -30.5t160.5 -90t92 -139.5l-215 -92q-17 71 -80 113.5t-149 42.5 q-113 0 -192.5 -75.5t-79.5 -194.5q0 -43 11 -79.5t36 -84t32 -64.5h295l-30 -141h-240q-6 -92 -68 -177t-137 -128q47 16 94 16q64 0 158.5 -38t149.5 -38q94 0 176 78l53 -190q-101 -101 -246 -101q-77 0 -156.5 23.5t-152 46.5t-131.5 23q-100 0 -232 -80z" />
<glyph unicode="&#xa4;" horiz-adv-x="1069" d="M23 283l157 129q-35 64 -49 109.5t-14 111.5q0 193 164 354l-76 100l65 54l80 -99q122 88 273 88q167 0 292 -116l160 131l51 -62l-159 -131q63 -104 63 -221q0 -187 -164 -354l78 -98l-70 -56l-75 101q-126 -91 -271 -91q-170 0 -297 121l-161 -135zM217 645 q0 -139 89 -226t229 -87q157 0 276 115.5t119 271.5q0 139 -89 226t-229 87q-157 0 -276 -115.5t-119 -271.5z" />
<glyph unicode="&#xa5;" horiz-adv-x="1304" d="M-12 242l32 139h492l41 186h-492l31 140h400l-293 659h260l246 -584l503 584h289l-582 -659h390l-31 -140h-481l-41 -186h481l-31 -139h-481l-53 -242h-240l53 242h-493z" />
<glyph unicode="&#xa6;" horiz-adv-x="438" d="M186 -41v647h148v-647h-148zM186 760v647h148v-647h-148z" />
<glyph unicode="&#xa7;" horiz-adv-x="976" d="M-55 4l125 129q54 -67 146.5 -107t195.5 -40q84 0 137 43.5t53 105.5q0 37 -28 65.5t-72 48t-98 38.5t-108 42.5t-98 53t-72 77.5t-28 109q0 102 72 179.5t205 107.5q-77 34 -120.5 89.5t-43.5 129.5q0 132 108 221.5t281 89.5q281 0 422 -151l-117 -117 q-48 56 -128.5 86.5t-166.5 30.5q-85 0 -136.5 -39t-51.5 -96q0 -36 28 -63.5t73 -46.5t99 -37t108 -41t99 -52.5t73 -77.5t28 -110q0 -99 -65.5 -180t-180.5 -117q133 -72 133 -207q0 -140 -112 -237t-291 -97q-150 0 -270.5 44t-198.5 126zM315 610q0 -60 51 -95.5 t158 -70.5q93 25 138 74.5t45 106.5q0 59 -43.5 95.5t-118.5 61.5q-115 -16 -172.5 -63t-57.5 -109z" />
<glyph unicode="&#xa8;" horiz-adv-x="583" d="M123 1233q0 53 40.5 93t94.5 40q44 0 75.5 -31t31.5 -75q0 -53 -41.5 -93.5t-94.5 -40.5q-46 0 -76 30.5t-30 76.5zM551 1233q0 53 40.5 93t94.5 40q44 0 75.5 -31t31.5 -75q0 -53 -41.5 -93.5t-94.5 -40.5q-46 0 -76 30.5t-30 76.5z" />
<glyph unicode="&#xa9;" horiz-adv-x="1593" d="M131 684q0 192 94.5 355t257 257.5t353.5 94.5q192 0 355 -94.5t258 -257.5t95 -355q0 -143 -56 -274t-151 -226t-226 -151t-275 -56q-191 0 -353.5 95t-257 258t-94.5 354zM201 684q0 -128 50.5 -246t136 -203.5t203 -136.5t245.5 -51q130 0 248 51t203.5 136.5 t136.5 203.5t51 246q0 130 -50.5 248t-136.5 203t-204 135.5t-248 50.5q-128 0 -245.5 -50.5t-203 -135.5t-136 -203t-50.5 -248zM410 629q0 102 40.5 194.5t106.5 157t153.5 102t178.5 37.5q221 0 323 -166l-69 -49q-37 67 -103 103t-153 36q-96 0 -185 -52t-147.5 -149 t-58.5 -212q0 -127 85 -216t222 -89q65 0 127.5 27.5t105.5 70.5l47 -64q-129 -110 -280 -110q-179 0 -286 107.5t-107 271.5z" />
<glyph unicode="&#xaa;" horiz-adv-x="843" d="M168 926q0 165 100.5 283t245.5 118q152 0 221 -100l19 84h157l-141 -643h-160l19 86q-87 -103 -205 -103q-109 0 -182.5 72t-73.5 203zM332 942q0 -79 42.5 -121.5t112.5 -42.5q91 0 166 82l60 268q-23 34 -67.5 54t-94.5 20q-92 0 -155.5 -77t-63.5 -183z" />
<glyph unicode="&#xab;" horiz-adv-x="1003" d="M59 498l410 362h213l-418 -373l238 -358h-197zM408 498l409 362h213l-418 -373l238 -358h-197z" />
<glyph unicode="&#xac;" horiz-adv-x="1046" d="M127 811l31 137h909l-117 -528h-143l86 391h-766z" />
<glyph unicode="&#xad;" horiz-adv-x="614" d="M41 403l39 185h491l-39 -185h-491z" />
<glyph unicode="&#xae;" horiz-adv-x="1011" d="M172 952q0 181 127 307.5t307 126.5q119 0 219 -57.5t157.5 -157.5t57.5 -219q0 -180 -127.5 -307t-308.5 -127q-180 0 -306 127t-126 307zM236 952q0 -153 107.5 -261.5t260.5 -108.5q155 0 265 109t110 261q0 156 -109.5 264.5t-265.5 108.5q-154 0 -261 -108 t-107 -265zM385 702l109 498h190q62 0 102.5 -36.5t40.5 -94.5q0 -70 -50.5 -119t-112.5 -49l90 -199h-80l-86 197h-92l-43 -197h-68zM510 961h135q48 0 79.5 30t31.5 72q0 36 -22.5 57t-63.5 21h-121z" />
<glyph unicode="&#xaf;" horiz-adv-x="743" d="M158 1210l28 127h742l-29 -127h-741z" />
<glyph unicode="&#xb0;" horiz-adv-x="618" d="M182 1120q0 110 77 188t187 78q109 0 188 -78t79 -188q0 -108 -79 -186t-188 -78q-110 0 -187 77.5t-77 186.5zM305 1120q0 -58 40.5 -98.5t98.5 -40.5q59 0 102.5 40.5t43.5 98.5t-43 101t-101 43t-99.5 -42.5t-41.5 -101.5z" />
<glyph unicode="&#xb1;" horiz-adv-x="1028" d="M-51 0l28 139h912l-31 -139h-909zM96 666l31 139h379l90 409h152l-91 -409h379l-30 -139h-379l-95 -424h-151l94 424h-379z" />
<glyph unicode="&#xb2;" horiz-adv-x="806" d="M178 862l29 131q109 64 177 105t137.5 86t108 76.5t71 65.5t45 63.5t12.5 60.5q0 53 -44 82t-110 29q-67 0 -127.5 -25t-101.5 -66l-70 109q58 55 139 85t166 30q135 0 226.5 -61t91.5 -171q0 -60 -33 -118.5t-101 -117.5t-147 -111.5t-196 -119.5h380l-28 -133h-625z " />
<glyph unicode="&#xb3;" horiz-adv-x="806" d="M195 997l104 101q40 -58 104 -87.5t136 -29.5q73 0 114 38t41 95q0 47 -52 75t-140 28q-45 0 -66 -3l29 132q41 -3 129 -3q78 0 122 29.5t44 83.5q0 49 -51 77t-123 28q-121 0 -217 -80l-58 104q54 49 131.5 79t157.5 30q146 0 237 -56t91 -157q0 -85 -62 -143.5 t-166 -65.5q68 -16 113 -62t45 -116q0 -96 -85 -171t-228 -75q-118 0 -211 40t-139 109z" />
<glyph unicode="&#xb4;" horiz-adv-x="491" d="M137 1139l352 295h209l-403 -295h-158z" />
<glyph unicode="&#xb6;" horiz-adv-x="919" d="M162 981q0 97 50.5 185t143 144t203.5 56h434l-348 -1571h-113l326 1458h-170l-326 -1458h-112l192 867q-116 0 -198 91t-82 228z" />
<glyph unicode="&#xb7;" horiz-adv-x="503" d="M109 492q0 63 46 108t109 45q55 0 93 -38.5t38 -92.5q0 -64 -46 -110t-111 -46q-54 0 -91.5 39t-37.5 95z" />
<glyph unicode="&#xb8;" horiz-adv-x="438" d="M-182 -315l63 88q72 -72 174 -72q53 0 82 22t29 60q0 24 -17.5 38.5t-48.5 14.5q-40 0 -65 -31l-74 48l100 170h113l-80 -132q29 23 66 23q52 0 85.5 -34t33.5 -91q0 -84 -64 -135t-162 -51q-75 0 -137 23t-98 59z" />
<glyph unicode="&#xb9;" horiz-adv-x="540" d="M225 1430l310 251h143l-180 -819h-166l131 600l-162 -135z" />
<glyph unicode="&#xba;" horiz-adv-x="829" d="M172 948q0 158 113 268.5t268 110.5q147 0 234 -82t87 -213q0 -160 -112.5 -270.5t-267.5 -110.5q-147 0 -234.5 82.5t-87.5 214.5zM336 944q0 -74 43.5 -119t116.5 -45q99 0 158 76.5t59 177.5q0 74 -44.5 118t-117.5 44q-99 0 -157 -75.5t-58 -176.5z" />
<glyph unicode="&#xbb;" horiz-adv-x="1003" d="M-23 129l418 373l-237 358h196l246 -368l-410 -363h-213zM326 129l417 373l-237 358h196l246 -368l-409 -363h-213z" />
<glyph unicode="&#xbc;" horiz-adv-x="1650" d="M145 0l1176 1366h137l-1175 -1366h-138zM156 1114l309 252h143l-180 -819h-166l131 600l-162 -135zM844 188l26 117l451 514h229l-110 -500h110l-28 -131h-111l-41 -188h-164l41 188h-403zM1038 319h238l78 351z" />
<glyph unicode="&#xbd;" horiz-adv-x="1722" d="M145 0l1176 1366h137l-1175 -1366h-138zM156 1114l309 252h143l-180 -819h-166l131 600l-162 -135zM905 0l29 131q109 64 177 105t137.5 86t108 76.5t71 65.5t45 63.5t12.5 60.5q0 53 -43.5 81.5t-110.5 28.5t-127.5 -24.5t-101.5 -65.5l-70 109q57 55 138.5 84.5 t166.5 29.5q135 0 226.5 -60.5t91.5 -170.5q0 -60 -33 -118.5t-101 -117.5t-147 -111.5t-196 -119.5h381l-29 -133h-625z" />
<glyph unicode="&#xbe;" horiz-adv-x="1849" d="M125 682l104 100q40 -58 103.5 -87t136.5 -29t114.5 38t41.5 95q0 47 -52.5 74.5t-140.5 27.5q-51 0 -65 -2l28 131q27 -2 129 -2q78 0 122 29.5t44 83.5q0 49 -51 76.5t-123 27.5q-121 0 -217 -80l-57 105q54 49 131 78.5t157 29.5q146 0 237 -56t91 -157 q0 -85 -61.5 -143.5t-165.5 -65.5q68 -16 112.5 -62t44.5 -116q0 -96 -85 -171t-228 -75q-118 0 -211 40.5t-139 109.5zM344 0l1176 1366h137l-1176 -1366h-137zM1040 188l27 117l451 514h229l-111 -500h111l-29 -131h-110l-41 -188h-164l41 188h-404zM1235 319h238l77 351z " />
<glyph unicode="&#xbf;" horiz-adv-x="811" d="M-80 -98q0 74 27 134t69.5 99t94.5 71.5t104 58.5t94.5 52.5t69.5 62.5t27 79q0 38 -29 67l194 62q41 -65 41 -146q0 -60 -24 -109.5t-62.5 -82.5t-85 -61t-93 -52.5t-85 -50t-62.5 -60t-24 -75.5q0 -64 53 -101.5t150 -37.5q158 0 276 112l105 -164q-179 -159 -414 -159 q-183 0 -304.5 82.5t-121.5 218.5zM416 856q0 64 46 110t111 46q54 0 91.5 -38.5t37.5 -94.5q0 -63 -46 -108.5t-109 -45.5q-55 0 -93 38.5t-38 92.5z" />
<glyph unicode="&#xc0;" horiz-adv-x="1378" d="M-109 0l840 1366h299l236 -1366h-260l-43 264h-627l-158 -264h-287zM451 475h491l-102 651zM639 1786h205l221 -295h-154z" />
<glyph unicode="&#xc1;" horiz-adv-x="1378" d="M-109 0l840 1366h299l236 -1366h-260l-43 264h-627l-158 -264h-287zM451 475h491l-102 651zM754 1491l352 295h209l-404 -295h-157z" />
<glyph unicode="&#xc2;" horiz-adv-x="1378" d="M-109 0l840 1366h299l236 -1366h-260l-43 264h-627l-158 -264h-287zM451 475h491l-102 651zM621 1491l256 295h196l131 -295h-131l-117 199l-194 -199h-141z" />
<glyph unicode="&#xc3;" horiz-adv-x="1378" d="M-109 0l840 1366h299l236 -1366h-260l-43 264h-627l-158 -264h-287zM451 475h491l-102 651zM584 1499q28 133 85.5 204t155.5 71q41 0 72 -16.5t50 -40t36 -47t39 -40t49 -16.5q73 0 109 147h118q-28 -133 -86 -203.5t-157 -70.5q-41 0 -71.5 16.5t-49.5 40t-35.5 47 t-38.5 40t-49 16.5q-73 0 -106 -148h-121z" />
<glyph unicode="&#xc4;" horiz-adv-x="1378" d="M-109 0l840 1366h299l236 -1366h-260l-43 264h-627l-158 -264h-287zM451 475h491l-102 651zM600 1585q0 53 40.5 93t94.5 40q44 0 75.5 -31t31.5 -75q0 -53 -41 -93t-94 -40q-46 0 -76.5 30t-30.5 76zM1028 1585q0 53 40.5 93t94.5 40q44 0 75.5 -31t31.5 -75 q0 -53 -41 -93t-94 -40q-46 0 -76.5 30t-30.5 76z" />
<glyph unicode="&#xc5;" horiz-adv-x="1378" d="M-109 0l840 1366h299l236 -1366h-260l-43 264h-627l-158 -264h-287zM451 475h491l-102 651zM727 1608q0 93 68 161t161 68q85 0 138 -52.5t53 -137.5q0 -93 -68 -161.5t-161 -68.5q-85 0 -138 53t-53 138zM831 1618q0 -41 27 -68.5t68 -27.5q47 0 81.5 34t34.5 80 q0 43 -26 70t-68 27q-46 0 -81.5 -34t-35.5 -81z" />
<glyph unicode="&#xc6;" horiz-adv-x="1966" d="M-115 0l1141 1366h1032l-45 -211h-696l-78 -352h682l-47 -211h-682l-84 -381h696l-47 -211h-936l58 264h-496l-215 -264h-283zM543 475h383l141 637z" />
<glyph unicode="&#xc7;" horiz-adv-x="1396" d="M104 582q0 178 64.5 331t172.5 256t250.5 161.5t297.5 58.5q217 0 366 -99t220 -260l-230 -82q-48 112 -145.5 170t-222.5 58q-102 0 -197 -43t-166.5 -118t-114.5 -184.5t-43 -234.5q0 -180 113.5 -294t302.5 -114q93 0 183 41.5t159 116.5l182 -129 q-107 -125 -250 -183.5t-286 -58.5q-27 0 -41 2l-51 -86q29 23 65 23q52 0 85.5 -34t33.5 -91q0 -84 -63.5 -135t-161.5 -51q-75 0 -137.5 23t-98.5 59l64 88q72 -72 174 -72q53 0 81.5 22t28.5 60q0 24 -17 38.5t-48 14.5q-41 0 -66 -31l-73 48l79 137q-229 41 -369.5 199 t-140.5 393z" />
<glyph unicode="&#xc8;" horiz-adv-x="1181" d="M35 0l301 1366h936l-45 -211h-697l-77 -352h682l-48 -211h-681l-84 -381h696l-47 -211h-936zM561 1786h205l221 -295h-153z" />
<glyph unicode="&#xc9;" horiz-adv-x="1181" d="M35 0l301 1366h936l-45 -211h-697l-77 -352h682l-48 -211h-681l-84 -381h696l-47 -211h-936zM676 1491l352 295h209l-403 -295h-158z" />
<glyph unicode="&#xca;" horiz-adv-x="1181" d="M35 0l301 1366h936l-45 -211h-697l-77 -352h682l-48 -211h-681l-84 -381h696l-47 -211h-936zM541 1491l256 295h196l131 -295h-131l-116 199l-195 -199h-141z" />
<glyph unicode="&#xcb;" horiz-adv-x="1181" d="M35 0l301 1366h936l-45 -211h-697l-77 -352h682l-48 -211h-681l-84 -381h696l-47 -211h-936zM524 1585q0 53 40.5 93t94.5 40q44 0 75.5 -31t31.5 -75q0 -53 -41 -93t-94 -40q-46 0 -76.5 30t-30.5 76zM952 1585q0 53 40.5 93t94.5 40q44 0 75.5 -31t31.5 -75 q0 -53 -41 -93t-94 -40q-46 0 -76.5 30t-30.5 76z" />
<glyph unicode="&#xcc;" horiz-adv-x="530" d="M35 0l301 1366h239l-301 -1366h-239zM211 1786h205l221 -295h-154z" />
<glyph unicode="&#xcd;" horiz-adv-x="530" d="M35 0l301 1366h239l-301 -1366h-239zM332 1491l352 295h209l-404 -295h-157z" />
<glyph unicode="&#xce;" horiz-adv-x="530" d="M35 0l301 1366h239l-301 -1366h-239zM193 1491l256 295h196l131 -295h-131l-117 199l-194 -199h-141z" />
<glyph unicode="&#xcf;" horiz-adv-x="530" d="M35 0l301 1366h239l-301 -1366h-239zM174 1583q0 53 40.5 93t94.5 40q44 0 75.5 -31t31.5 -75q0 -53 -41 -93t-94 -40q-46 0 -76.5 30t-30.5 76zM602 1583q0 53 40.5 93t94.5 40q44 0 75.5 -31t31.5 -75q0 -53 -41 -93t-94 -40q-46 0 -76.5 30t-30.5 76z" />
<glyph unicode="&#xd0;" horiz-adv-x="1507" d="M39 588l43 192h178l129 586h498q114 0 219.5 -43t185.5 -118.5t128 -186t48 -236.5q0 -113 -30.5 -221.5t-98.5 -211t-167.5 -179.5t-248.5 -123.5t-329 -46.5h-506l129 588h-178zM375 211h268q130 1 240 46t183 121t114 176.5t41 211.5q0 167 -107 278t-270 111h-260 l-84 -375h323l-43 -192h-323z" />
<glyph unicode="&#xd1;" horiz-adv-x="1474" d="M35 0l301 1366h246l485 -958l213 958h240l-301 -1366h-232l-493 989l-220 -989h-239zM627 1499q28 133 85.5 204t155.5 71q41 0 72 -16.5t50 -40t36 -47t39 -40t49 -16.5q73 0 109 147h118q-28 -133 -86 -203.5t-157 -70.5q-41 0 -71.5 16.5t-49.5 40t-35.5 47t-38.5 40 t-49 16.5q-73 0 -106 -148h-121z" />
<glyph unicode="&#xd2;" horiz-adv-x="1566" d="M104 582q0 223 104 408.5t284 292t397 106.5q183 0 330.5 -71.5t235 -210.5t87.5 -323q0 -222 -103 -408t-283 -293.5t-396 -107.5q-137 0 -257 42.5t-208.5 119.5t-139.5 192t-51 253zM356 596q0 -187 118 -297.5t298 -110.5q105 0 200.5 44.5t165.5 121t111 185 t41 229.5q0 189 -118 298.5t-300 109.5q-105 0 -200.5 -44.5t-164.5 -121t-110 -185t-41 -229.5zM737 1786h205l221 -295h-153z" />
<glyph unicode="&#xd3;" horiz-adv-x="1566" d="M104 582q0 223 104 408.5t284 292t397 106.5q183 0 330.5 -71.5t235 -210.5t87.5 -323q0 -222 -103 -408t-283 -293.5t-396 -107.5q-137 0 -257 42.5t-208.5 119.5t-139.5 192t-51 253zM356 596q0 -187 118 -297.5t298 -110.5q105 0 200.5 44.5t165.5 121t111 185 t41 229.5q0 189 -118 298.5t-300 109.5q-105 0 -200.5 -44.5t-164.5 -121t-110 -185t-41 -229.5zM848 1491l352 295h209l-403 -295h-158z" />
<glyph unicode="&#xd4;" horiz-adv-x="1566" d="M104 582q0 223 104 408.5t284 292t397 106.5q183 0 330.5 -71.5t235 -210.5t87.5 -323q0 -222 -103 -408t-283 -293.5t-396 -107.5q-137 0 -257 42.5t-208.5 119.5t-139.5 192t-51 253zM356 596q0 -187 118 -297.5t298 -110.5q105 0 200.5 44.5t165.5 121t111 185 t41 229.5q0 189 -118 298.5t-300 109.5q-105 0 -200.5 -44.5t-164.5 -121t-110 -185t-41 -229.5zM717 1491l256 295h196l131 -295h-131l-116 199l-195 -199h-141z" />
<glyph unicode="&#xd5;" horiz-adv-x="1566" d="M104 582q0 223 104 408.5t284 292t397 106.5q183 0 330.5 -71.5t235 -210.5t87.5 -323q0 -222 -103 -408t-283 -293.5t-396 -107.5q-137 0 -257 42.5t-208.5 119.5t-139.5 192t-51 253zM356 596q0 -187 118 -297.5t298 -110.5q105 0 200.5 44.5t165.5 121t111 185 t41 229.5q0 189 -118 298.5t-300 109.5q-105 0 -200.5 -44.5t-164.5 -121t-110 -185t-41 -229.5zM678 1499q28 133 86 204t156 71q41 0 72 -16.5t49.5 -40t35.5 -47t39 -40t49 -16.5q73 0 109 147h119q-57 -274 -244 -274q-41 0 -71.5 16.5t-49.5 40t-35.5 47t-38.5 40 t-49 16.5q-73 0 -106 -148h-121z" />
<glyph unicode="&#xd6;" horiz-adv-x="1566" d="M104 582q0 223 104 408.5t284 292t397 106.5q183 0 330.5 -71.5t235 -210.5t87.5 -323q0 -222 -103 -408t-283 -293.5t-396 -107.5q-137 0 -257 42.5t-208.5 119.5t-139.5 192t-51 253zM356 596q0 -187 118 -297.5t298 -110.5q105 0 200.5 44.5t165.5 121t111 185 t41 229.5q0 189 -118 298.5t-300 109.5q-105 0 -200.5 -44.5t-164.5 -121t-110 -185t-41 -229.5zM694 1585q0 53 40.5 93t94.5 40q44 0 75.5 -31t31.5 -75q0 -53 -41 -93t-94 -40q-46 0 -76.5 30t-30.5 76zM1122 1585q0 53 40.5 93t94.5 40q44 0 75.5 -31t31.5 -75 q0 -53 -41 -93t-94 -40q-46 0 -76.5 30t-30.5 76z" />
<glyph unicode="&#xd7;" horiz-adv-x="1028" d="M90 393l369 301l-228 291l111 88l225 -291l367 299l84 -104l-365 -301l224 -291l-109 -90l-225 291l-365 -299z" />
<glyph unicode="&#xd8;" horiz-adv-x="1566" d="M78 0l172 182q-146 159 -146 400q0 223 104 408.5t284 292t397 106.5q227 0 395 -111l84 88h178l-162 -170q158 -164 158 -412q0 -222 -103 -408t-283 -293.5t-396 -107.5q-243 0 -414 121l-90 -96h-178zM356 596q0 -136 64 -234l702 744q-109 70 -250 70 q-105 0 -200.5 -44.5t-164.5 -121t-110 -185t-41 -229.5zM510 268q106 -80 262 -80q105 0 200.5 44.5t165.5 121t111 185t41 229.5q0 150 -73 248z" />
<glyph unicode="&#xd9;" horiz-adv-x="1474" d="M143 442q0 36 11 99l182 825h244l-183 -821q-8 -48 -8 -74q2 -124 87.5 -204.5t236.5 -80.5q162 0 253 93t130 266l180 821h244l-183 -825q-23 -104 -56 -187.5t-84.5 -155.5t-118.5 -120.5t-159.5 -75.5t-205.5 -27q-272 0 -421 126t-149 341zM688 1786h205l221 -295 h-153z" />
<glyph unicode="&#xda;" horiz-adv-x="1474" d="M143 442q0 36 11 99l182 825h244l-183 -821q-8 -48 -8 -74q2 -124 87.5 -204.5t236.5 -80.5q162 0 253 93t130 266l180 821h244l-183 -825q-23 -104 -56 -187.5t-84.5 -155.5t-118.5 -120.5t-159.5 -75.5t-205.5 -27q-272 0 -421 126t-149 341zM801 1491l352 295h209 l-404 -295h-157z" />
<glyph unicode="&#xdb;" horiz-adv-x="1474" d="M143 442q0 36 11 99l182 825h244l-183 -821q-8 -48 -8 -74q2 -124 87.5 -204.5t236.5 -80.5q162 0 253 93t130 266l180 821h244l-183 -825q-23 -104 -56 -187.5t-84.5 -155.5t-118.5 -120.5t-159.5 -75.5t-205.5 -27q-272 0 -421 126t-149 341zM676 1491l256 295h196 l132 -295h-132l-116 199l-195 -199h-141z" />
<glyph unicode="&#xdc;" horiz-adv-x="1474" d="M143 442q0 36 11 99l182 825h244l-183 -821q-8 -48 -8 -74q2 -124 87.5 -204.5t236.5 -80.5q162 0 253 93t130 266l180 821h244l-183 -825q-23 -104 -56 -187.5t-84.5 -155.5t-118.5 -120.5t-159.5 -75.5t-205.5 -27q-272 0 -421 126t-149 341zM649 1585q0 53 40.5 93 t94.5 40q44 0 75.5 -31t31.5 -75q0 -53 -41 -93t-94 -40q-46 0 -76.5 30t-30.5 76zM1077 1585q0 53 40.5 93t94.5 40q44 0 75.5 -31t31.5 -75q0 -53 -41 -93t-94 -40q-46 0 -76.5 30t-30.5 76z" />
<glyph unicode="&#xdd;" horiz-adv-x="1304" d="M195 1366h260l245 -584l504 584h289l-705 -799l-124 -567h-240l125 567zM721 1491l352 295h209l-403 -295h-158z" />
<glyph unicode="&#xde;" horiz-adv-x="1247" d="M35 0l301 1366h239l-49 -229h344q157 0 264 -108.5t107 -260.5q0 -68 -18.5 -135t-61 -131t-104 -112.5t-155.5 -78.5t-208 -30h-358l-62 -281h-239zM383 492h326q133 0 207.5 74t74.5 179q0 78 -56 129.5t-138 51.5h-318z" />
<glyph unicode="&#xdf;" horiz-adv-x="1275" d="M31 0l219 993q38 174 155.5 283.5t305.5 109.5q100 0 191 -32t150.5 -94.5t59.5 -141.5q0 -75 -39 -131t-94 -88.5t-110.5 -60t-94.5 -61t-39 -75.5q0 -28 26 -50.5t67 -39t91.5 -33t100.5 -39t91 -51t67 -74.5t26 -104q0 -137 -111 -236.5t-290 -99.5q-143 0 -243.5 44 t-186.5 141l125 135q118 -145 311 -145q82 0 132 40.5t50 94.5q0 31 -26 55t-67 40.5t-91.5 33t-100.5 37.5t-91 48t-67 70t-26 99q0 66 27 118.5t67 83.5t87.5 59t87.5 47t67 45.5t27 57.5q0 53 -54 85t-131 32q-90 0 -151.5 -53.5t-83.5 -149.5l-219 -993h-215z" />
<glyph unicode="&#xe0;" d="M66 385q0 116 36 228t100.5 201.5t164.5 144.5t219 55q106 0 191.5 -44t135.5 -122l31 141h215l-219 -989h-215l31 131q-131 -156 -312 -156q-170 0 -274 109t-104 301zM291 428q0 -118 68.5 -190t175.5 -72q76 0 144.5 39.5t115.5 101.5l84 383q-35 59 -104 96t-157 37 q-94 0 -170 -56t-116.5 -146t-40.5 -193zM424 1434h205l221 -295h-154z" />
<glyph unicode="&#xe1;" d="M66 385q0 116 36 228t100.5 201.5t164.5 144.5t219 55q106 0 191.5 -44t135.5 -122l31 141h215l-219 -989h-215l31 131q-131 -156 -312 -156q-170 0 -274 109t-104 301zM291 428q0 -118 68.5 -190t175.5 -72q76 0 144.5 39.5t115.5 101.5l84 383q-35 59 -104 96t-157 37 q-94 0 -170 -56t-116.5 -146t-40.5 -193zM539 1139l352 295h209l-404 -295h-157z" />
<glyph unicode="&#xe2;" d="M66 385q0 116 36 228t100.5 201.5t164.5 144.5t219 55q106 0 191.5 -44t135.5 -122l31 141h215l-219 -989h-215l31 131q-131 -156 -312 -156q-170 0 -274 109t-104 301zM291 428q0 -118 68.5 -190t175.5 -72q76 0 144.5 39.5t115.5 101.5l84 383q-35 59 -104 96t-157 37 q-94 0 -170 -56t-116.5 -146t-40.5 -193zM410 1139l256 295h196l131 -295h-131l-117 198l-194 -198h-141z" />
<glyph unicode="&#xe3;" d="M66 385q0 116 36 228t100.5 201.5t164.5 144.5t219 55q106 0 191.5 -44t135.5 -122l31 141h215l-219 -989h-215l31 131q-131 -156 -312 -156q-170 0 -274 109t-104 301zM291 428q0 -118 68.5 -190t175.5 -72q76 0 144.5 39.5t115.5 101.5l84 383q-35 59 -104 96t-157 37 q-94 0 -170 -56t-116.5 -146t-40.5 -193zM369 1147q28 133 85.5 203.5t155.5 70.5q41 0 72 -16.5t50 -39.5t36 -46.5t39 -40t49 -16.5q73 0 109 147h118q-28 -133 -86 -203.5t-157 -70.5q-41 0 -71.5 16.5t-49.5 39.5t-35.5 46.5t-38.5 40t-49 16.5q-74 0 -107 -147h-120z " />
<glyph unicode="&#xe4;" d="M66 385q0 116 36 228t100.5 201.5t164.5 144.5t219 55q106 0 191.5 -44t135.5 -122l31 141h215l-219 -989h-215l31 131q-131 -156 -312 -156q-170 0 -274 109t-104 301zM291 428q0 -118 68.5 -190t175.5 -72q76 0 144.5 39.5t115.5 101.5l84 383q-35 59 -104 96t-157 37 q-94 0 -170 -56t-116.5 -146t-40.5 -193zM389 1233q0 53 40.5 93t94.5 40q44 0 75.5 -31t31.5 -75q0 -54 -41 -94t-94 -40q-46 0 -76.5 30.5t-30.5 76.5zM817 1233q0 53 40.5 93t94.5 40q44 0 75.5 -31t31.5 -75q0 -54 -41 -94t-94 -40q-46 0 -76.5 30.5t-30.5 76.5z" />
<glyph unicode="&#xe5;" d="M66 385q0 116 36 228t100.5 201.5t164.5 144.5t219 55q106 0 191.5 -44t135.5 -122l31 141h215l-219 -989h-215l31 131q-131 -156 -312 -156q-170 0 -274 109t-104 301zM291 428q0 -118 68.5 -190t175.5 -72q76 0 144.5 39.5t115.5 101.5l84 383q-35 59 -104 96t-157 37 q-94 0 -170 -56t-116.5 -146t-40.5 -193zM530 1303q0 93 68.5 161t161.5 68q85 0 137.5 -53t52.5 -138q0 -93 -68 -161t-161 -68q-85 0 -138 53t-53 138zM635 1313q0 -41 26.5 -68.5t67.5 -27.5q47 0 82 34t35 80q0 43 -25.5 69.5t-68.5 26.5q-46 0 -81.5 -33.5t-35.5 -80.5 z" />
<glyph unicode="&#xe6;" horiz-adv-x="1892" d="M66 385q0 116 36 228t100.5 201.5t164.5 144.5t219 55q106 0 191.5 -44t135.5 -122l31 141h215l-31 -137q142 162 324 162q179 0 275 -110.5t96 -311.5q0 -87 -21 -168h-758q-2 -6 -2 -33q0 -94 78.5 -164.5t220.5 -70.5q71 0 139.5 22t118.5 62l70 -156 q-71 -50 -158 -79.5t-165 -29.5q-144 0 -233.5 60t-129.5 160l-43 -195h-215l31 131q-131 -156 -312 -156q-170 0 -274 109t-104 301zM291 428q0 -118 68.5 -190t175.5 -72q76 0 144.5 39.5t115.5 101.5l84 383q-35 59 -104 96t-157 37q-94 0 -170 -56t-116.5 -146 t-40.5 -193zM1067 578h561q0 3 1 13t1 13q0 103 -64.5 168.5t-189.5 65.5q-115 0 -202.5 -77t-106.5 -183z" />
<glyph unicode="&#xe7;" horiz-adv-x="1019" d="M68 422q0 161 75 297t206 215.5t288 79.5q139 0 236 -51t151 -140l-162 -123q-33 59 -92.5 91t-132.5 32q-155 0 -251.5 -115t-96.5 -276q0 -125 77 -195.5t195 -70.5q136 0 227 108l117 -143q-148 -156 -364 -156h-17l-51 -84q29 23 66 23q52 0 85 -34t33 -91 q0 -84 -63.5 -135t-161.5 -51q-75 0 -137 23t-98 59l63 88q72 -72 174 -72q53 0 82 22t29 60q0 24 -17.5 38.5t-48.5 14.5q-40 0 -65 -31l-74 48l78 135q-161 31 -255.5 146.5t-94.5 287.5z" />
<glyph unicode="&#xe8;" horiz-adv-x="1140" d="M68 418q0 160 73.5 297t203.5 218t288 81q195 0 316.5 -119t121.5 -317q0 -77 -20 -154h-764q-2 -6 -2 -33q0 -95 79 -167t220 -72q71 0 142.5 22t121.5 62l70 -152q-71 -50 -164.5 -79.5t-186.5 -29.5q-229 0 -364 120t-135 323zM309 578h563h5q0 3 1 13t1 13 q0 101 -68.5 167.5t-192.5 66.5q-115 0 -202.5 -77t-106.5 -183zM451 1434h204l222 -295h-154z" />
<glyph unicode="&#xe9;" horiz-adv-x="1140" d="M68 418q0 160 73.5 297t203.5 218t288 81q195 0 316.5 -119t121.5 -317q0 -77 -20 -154h-764q-2 -6 -2 -33q0 -95 79 -167t220 -72q71 0 142.5 22t121.5 62l70 -152q-71 -50 -164.5 -79.5t-186.5 -29.5q-229 0 -364 120t-135 323zM309 578h563h5q0 3 1 13t1 13 q0 101 -68.5 167.5t-192.5 66.5q-115 0 -202.5 -77t-106.5 -183zM567 1139l353 295h208l-403 -295h-158z" />
<glyph unicode="&#xea;" horiz-adv-x="1140" d="M68 418q0 160 73.5 297t203.5 218t288 81q195 0 316.5 -119t121.5 -317q0 -77 -20 -154h-764q-2 -6 -2 -33q0 -95 79 -167t220 -72q71 0 142.5 22t121.5 62l70 -152q-71 -50 -164.5 -79.5t-186.5 -29.5q-229 0 -364 120t-135 323zM309 578h563h5q0 3 1 13t1 13 q0 101 -68.5 167.5t-192.5 66.5q-115 0 -202.5 -77t-106.5 -183zM434 1139l256 295h197l131 -295h-131l-117 198l-195 -198h-141z" />
<glyph unicode="&#xeb;" horiz-adv-x="1140" d="M68 418q0 160 73.5 297t203.5 218t288 81q195 0 316.5 -119t121.5 -317q0 -77 -20 -154h-764q-2 -6 -2 -33q0 -95 79 -167t220 -72q71 0 142.5 22t121.5 62l70 -152q-71 -50 -164.5 -79.5t-186.5 -29.5q-229 0 -364 120t-135 323zM309 578h563h5q0 3 1 13t1 13 q0 101 -68.5 167.5t-192.5 66.5q-115 0 -202.5 -77t-106.5 -183zM414 1233q0 53 40.5 93t94.5 40q44 0 75 -31t31 -75q0 -54 -41 -94t-94 -40q-46 0 -76 30.5t-30 76.5zM842 1233q0 53 40.5 93t94.5 40q44 0 75 -31t31 -75q0 -54 -41 -94t-94 -40q-46 0 -76 30.5t-30 76.5z " />
<glyph unicode="&#xec;" horiz-adv-x="493" d="M29 0l219 989h215l-219 -989h-215zM115 1434h204l222 -295h-154z" />
<glyph unicode="&#xed;" horiz-adv-x="493" d="M29 0l219 989h215l-219 -989h-215zM231 1139l353 295h209l-404 -295h-158z" />
<glyph unicode="&#xee;" horiz-adv-x="493" d="M29 0l219 989h215l-219 -989h-215zM96 1139l256 295h197l131 -295h-131l-117 198l-194 -198h-142z" />
<glyph unicode="&#xef;" horiz-adv-x="493" d="M29 0l219 989h215l-219 -989h-215zM78 1233q0 53 40.5 93t94.5 40q44 0 75 -31t31 -75q0 -54 -41 -94t-94 -40q-46 0 -76 30.5t-30 76.5zM506 1233q0 53 40.5 93t94.5 40q44 0 75.5 -31t31.5 -75q0 -53 -41.5 -93.5t-94.5 -40.5q-46 0 -76 30.5t-30 76.5z" />
<glyph unicode="&#xf0;" horiz-adv-x="1175" d="M63 403q0 152 67 279.5t183 201.5t254 74q115 0 204.5 -55t135.5 -164q-49 179 -245 375l-326 -98l-23 106l256 76q-48 43 -118 96l151 160q115 -87 209 -184l233 69l23 -104l-176 -53q223 -271 223 -557q0 -178 -68.5 -325t-199.5 -236t-299 -89q-216 0 -350 118.5 t-134 309.5zM287 418q0 -115 69.5 -183.5t194.5 -68.5q135 0 228 104t93 254q0 100 -69.5 173t-198.5 73q-133 0 -225 -102t-92 -250z" />
<glyph unicode="&#xf1;" horiz-adv-x="1163" d="M39 0l219 989h215l-31 -133q166 158 338 158q139 0 222 -66t83 -182q0 -38 -12 -84l-149 -682h-215l137 621q8 40 8 63q0 71 -50 105t-134 34q-70 0 -138 -38t-124 -95l-154 -690h-215zM397 1147q28 133 86 203.5t156 70.5q41 0 72 -16.5t50 -39.5t36 -46.5t39 -40 t49 -16.5q72 0 108 147h119q-57 -274 -244 -274q-41 0 -71.5 16.5t-49 39.5t-35 46.5t-38.5 40t-49 16.5q-74 0 -107 -147h-121z" />
<glyph unicode="&#xf2;" horiz-adv-x="1175" d="M68 422q0 115 42.5 222.5t115.5 189.5t179 131t226 49q221 0 347 -123t126 -322q0 -115 -42.5 -223t-115.5 -190t-179 -131.5t-226 -49.5q-221 0 -347 124t-126 323zM291 430q0 -122 68.5 -193t189.5 -71q94 0 171.5 56.5t119 146t41.5 190.5q0 122 -68.5 193t-189.5 71 q-142 0 -237 -118t-95 -275zM457 1434h205l221 -295h-154z" />
<glyph unicode="&#xf3;" horiz-adv-x="1175" d="M68 422q0 115 42.5 222.5t115.5 189.5t179 131t226 49q221 0 347 -123t126 -322q0 -115 -42.5 -223t-115.5 -190t-179 -131.5t-226 -49.5q-221 0 -347 124t-126 323zM291 430q0 -122 68.5 -193t189.5 -71q94 0 171.5 56.5t119 146t41.5 190.5q0 122 -68.5 193t-189.5 71 q-142 0 -237 -118t-95 -275zM571 1139l353 295h209l-404 -295h-158z" />
<glyph unicode="&#xf4;" horiz-adv-x="1175" d="M68 422q0 115 42.5 222.5t115.5 189.5t179 131t226 49q221 0 347 -123t126 -322q0 -115 -42.5 -223t-115.5 -190t-179 -131.5t-226 -49.5q-221 0 -347 124t-126 323zM291 430q0 -122 68.5 -193t189.5 -71q94 0 171.5 56.5t119 146t41.5 190.5q0 122 -68.5 193t-189.5 71 q-142 0 -237 -118t-95 -275zM440 1139l256 295h197l131 -295h-131l-117 198l-194 -198h-142z" />
<glyph unicode="&#xf5;" horiz-adv-x="1175" d="M68 422q0 115 42.5 222.5t115.5 189.5t179 131t226 49q221 0 347 -123t126 -322q0 -115 -42.5 -223t-115.5 -190t-179 -131.5t-226 -49.5q-221 0 -347 124t-126 323zM291 430q0 -122 68.5 -193t189.5 -71q94 0 171.5 56.5t119 146t41.5 190.5q0 122 -68.5 193t-189.5 71 q-142 0 -237 -118t-95 -275zM403 1147q28 133 86 203.5t156 70.5q41 0 72 -16.5t50 -39.5t36 -46.5t39 -40t49 -16.5q72 0 108 147h119q-57 -274 -244 -274q-41 0 -71.5 16.5t-49 39.5t-35 46.5t-38.5 40t-49 16.5q-74 0 -107 -147h-121z" />
<glyph unicode="&#xf6;" horiz-adv-x="1175" d="M68 422q0 115 42.5 222.5t115.5 189.5t179 131t226 49q221 0 347 -123t126 -322q0 -115 -42.5 -223t-115.5 -190t-179 -131.5t-226 -49.5q-221 0 -347 124t-126 323zM291 430q0 -122 68.5 -193t189.5 -71q94 0 171.5 56.5t119 146t41.5 190.5q0 122 -68.5 193t-189.5 71 q-142 0 -237 -118t-95 -275zM418 1233q0 53 40.5 93t94.5 40q44 0 75 -31t31 -75q0 -54 -41 -94t-94 -40q-46 0 -76 30.5t-30 76.5zM846 1233q0 53 40.5 93t94.5 40q44 0 75 -31t31 -75q0 -54 -41 -94t-94 -40q-46 0 -76 30.5t-30 76.5z" />
<glyph unicode="&#xf7;" horiz-adv-x="1046" d="M86 623l31 137h927l-30 -137h-928zM369 303q0 49 36 84t87 35q41 0 70.5 -30t29.5 -73q0 -49 -35.5 -83.5t-85.5 -34.5q-43 0 -72.5 29.5t-29.5 72.5zM537 1057q0 49 35 84t85 35q43 0 73 -30t30 -73q0 -49 -36.5 -84t-86.5 -35q-41 0 -70.5 30t-29.5 73z" />
<glyph unicode="&#xf8;" horiz-adv-x="1175" d="M-12 0l159 152q-79 110 -79 270q0 115 42.5 222.5t115.5 189.5t179 131t226 49q187 0 317 -99l76 74h150l-154 -147q84 -117 84 -273q0 -115 -42.5 -223t-115.5 -190t-179 -131.5t-226 -49.5q-196 0 -324 101l-80 -76h-149zM291 430q0 -71 20 -121l482 459 q-68 55 -170 55q-142 0 -237 -118t-95 -275zM373 223q66 -57 176 -57q94 0 171.5 56.5t119 146t41.5 190.5q0 69 -25 127z" />
<glyph unicode="&#xf9;" horiz-adv-x="1161" d="M86 225q0 32 10 82l152 682h215l-137 -618q-11 -55 -11 -64q0 -71 51 -106t134 -35q69 0 138.5 38.5t125.5 96.5l151 688h215l-219 -989h-215l31 135q-168 -160 -338 -160q-139 0 -221 67t-82 183zM455 1434h204l222 -295h-154z" />
<glyph unicode="&#xfa;" horiz-adv-x="1161" d="M86 225q0 32 10 82l152 682h215l-137 -618q-11 -55 -11 -64q0 -71 51 -106t134 -35q69 0 138.5 38.5t125.5 96.5l151 688h215l-219 -989h-215l31 135q-168 -160 -338 -160q-139 0 -221 67t-82 183zM567 1139l353 295h208l-403 -295h-158z" />
<glyph unicode="&#xfb;" horiz-adv-x="1161" d="M86 225q0 32 10 82l152 682h215l-137 -618q-11 -55 -11 -64q0 -71 51 -106t134 -35q69 0 138.5 38.5t125.5 96.5l151 688h215l-219 -989h-215l31 135q-168 -160 -338 -160q-139 0 -221 67t-82 183zM432 1139l256 295h197l131 -295h-131l-117 198l-195 -198h-141z" />
<glyph unicode="&#xfc;" horiz-adv-x="1161" d="M86 225q0 32 10 82l152 682h215l-137 -618q-11 -55 -11 -64q0 -71 51 -106t134 -35q69 0 138.5 38.5t125.5 96.5l151 688h215l-219 -989h-215l31 135q-168 -160 -338 -160q-139 0 -221 67t-82 183zM418 1233q0 53 40.5 93t94.5 40q44 0 75 -31t31 -75q0 -54 -41 -94 t-94 -40q-46 0 -76 30.5t-30 76.5zM846 1233q0 53 40.5 93t94.5 40q44 0 75 -31t31 -75q0 -54 -41 -94t-94 -40q-46 0 -76 30.5t-30 76.5z" />
<glyph unicode="&#xfd;" horiz-adv-x="1030" d="M-96 -379l71 189q39 -17 101 -17q40 0 70.5 18.5t62.5 63.5l78 119l-183 995h224l123 -741l454 741h238l-737 -1167q-73 -119 -156 -171t-195 -52q-87 0 -151 22zM500 1139l352 295h209l-404 -295h-157z" />
<glyph unicode="&#xfe;" horiz-adv-x="1185" d="M-55 -377l385 1743h215l-111 -508q128 156 309 156q172 0 275.5 -108t103.5 -300q0 -117 -35.5 -229t-100 -202t-165 -145t-219.5 -55q-105 0 -191.5 44.5t-136.5 121.5l-114 -518h-215zM309 301q35 -60 104 -97.5t156 -37.5q142 0 235 118.5t93 278.5q0 119 -67.5 189.5 t-176.5 70.5q-75 0 -144 -39t-114 -100z" />
<glyph unicode="&#xff;" horiz-adv-x="1030" d="M-96 -379l71 189q39 -17 101 -17q40 0 70.5 18.5t62.5 63.5l78 119l-183 995h224l123 -741l454 741h238l-737 -1167q-73 -119 -156 -171t-195 -52q-87 0 -151 22zM346 1233q0 53 40.5 93t94.5 40q44 0 75.5 -31t31.5 -75q0 -54 -41 -94t-94 -40q-46 0 -76.5 30.5 t-30.5 76.5zM774 1233q0 53 40.5 93t94.5 40q44 0 75.5 -31t31.5 -75q0 -54 -41 -94t-94 -40q-46 0 -76.5 30.5t-30.5 76.5z" />
<glyph unicode="&#x100;" horiz-adv-x="1378" d="M-109 0l840 1366h299l236 -1366h-260l-43 264h-627l-158 -264h-287zM451 475h491l-102 651zM545 1532l28 127h742l-29 -127h-741z" />
<glyph unicode="&#x101;" d="M66 385q0 116 36 228t100.5 201.5t164.5 144.5t219 55q106 0 191.5 -44t135.5 -122l31 141h215l-219 -989h-215l31 131q-131 -156 -312 -156q-170 0 -274 109t-104 301zM291 428q0 -118 68.5 -190t175.5 -72q76 0 144.5 39.5t115.5 101.5l84 383q-35 59 -104 96t-157 37 q-94 0 -170 -56t-116.5 -146t-40.5 -193zM334 1180l28 127h742l-29 -127h-741z" />
<glyph unicode="&#x102;" horiz-adv-x="1378" d="M-109 0l840 1366h299l236 -1366h-260l-43 264h-627l-158 -264h-287zM451 475h491l-102 651zM584 1651l112 84q32 -64 91 -101t141 -37q163 0 291 138l84 -84q-81 -85 -185 -133t-213 -48q-107 0 -191.5 48.5t-129.5 132.5z" />
<glyph unicode="&#x103;" d="M66 385q0 116 36 228t100.5 201.5t164.5 144.5t219 55q106 0 191.5 -44t135.5 -122l31 141h215l-219 -989h-215l31 131q-131 -156 -312 -156q-170 0 -274 109t-104 301zM291 428q0 -118 68.5 -190t175.5 -72q76 0 144.5 39.5t115.5 101.5l84 383q-35 59 -104 96t-157 37 q-94 0 -170 -56t-116.5 -146t-40.5 -193zM375 1325l112 84q69 -137 232 -137q164 0 291 137l84 -84q-81 -84 -185 -132t-213 -48q-108 0 -192 48t-129 132z" />
<glyph unicode="&#x104;" horiz-adv-x="1378" d="M-109 0l840 1366h299l236 -1366q-201 -88 -201 -211q0 -35 22 -54.5t58 -19.5q60 0 104 76l78 -63q-80 -109 -190 -109q-79 0 -131 40t-52 112q0 135 133 229h-81l-43 264h-627l-158 -264h-287zM451 475h491l-102 651z" />
<glyph unicode="&#x105;" d="M66 385q0 116 36 228t100.5 201.5t164.5 144.5t219 55q106 0 191.5 -44t135.5 -122l31 141h215l-219 -989q-201 -88 -201 -211q0 -35 22 -54.5t58 -19.5q61 0 105 76l77 -63q-80 -109 -190 -109q-79 0 -130.5 40t-51.5 112q0 135 133 229h-37l31 131q-131 -156 -312 -156 q-170 0 -274 109t-104 301zM291 428q0 -118 68.5 -190t175.5 -72q76 0 144.5 39.5t115.5 101.5l84 383q-35 59 -104 96t-157 37q-94 0 -170 -56t-116.5 -146t-40.5 -193z" />
<glyph unicode="&#x106;" horiz-adv-x="1396" d="M104 582q0 178 64.5 331t172.5 256t250.5 161.5t297.5 58.5q217 0 366 -99t220 -260l-230 -82q-48 112 -145.5 170t-222.5 58q-102 0 -197 -43t-166.5 -118t-114.5 -184.5t-43 -234.5q0 -180 113.5 -294t302.5 -114q93 0 183 41.5t159 116.5l182 -129 q-107 -125 -250 -183.5t-286 -58.5q-186 0 -335 74t-235 213t-86 320zM862 1491l352 295h209l-403 -295h-158z" />
<glyph unicode="&#x107;" horiz-adv-x="1019" d="M68 422q0 161 75 297t206 215.5t288 79.5q139 0 236 -51t151 -140l-162 -123q-33 59 -92.5 91t-132.5 32q-155 0 -251.5 -115t-96.5 -276q0 -125 77 -195.5t195 -70.5q136 0 227 108l117 -143q-148 -156 -364 -156q-213 0 -343 122t-130 325zM586 1139l352 295h209 l-404 -295h-157z" />
<glyph unicode="&#x108;" horiz-adv-x="1396" d="M104 582q0 178 64.5 331t172.5 256t250.5 161.5t297.5 58.5q217 0 366 -99t220 -260l-230 -82q-48 112 -145.5 170t-222.5 58q-102 0 -197 -43t-166.5 -118t-114.5 -184.5t-43 -234.5q0 -180 113.5 -294t302.5 -114q93 0 183 41.5t159 116.5l182 -129 q-107 -125 -250 -183.5t-286 -58.5q-186 0 -335 74t-235 213t-86 320zM729 1491l256 295h197l131 -295h-131l-117 199l-195 -199h-141z" />
<glyph unicode="&#x109;" horiz-adv-x="1019" d="M68 422q0 161 75 297t206 215.5t288 79.5q139 0 236 -51t151 -140l-162 -123q-33 59 -92.5 91t-132.5 32q-155 0 -251.5 -115t-96.5 -276q0 -125 77 -195.5t195 -70.5q136 0 227 108l117 -143q-148 -156 -364 -156q-213 0 -343 122t-130 325zM453 1139l256 295h196 l131 -295h-131l-117 198l-194 -198h-141z" />
<glyph unicode="&#x10a;" horiz-adv-x="1396" d="M104 582q0 178 64.5 331t172.5 256t250.5 161.5t297.5 58.5q217 0 366 -99t220 -260l-230 -82q-48 112 -145.5 170t-222.5 58q-102 0 -197 -43t-166.5 -118t-114.5 -184.5t-43 -234.5q0 -180 113.5 -294t302.5 -114q93 0 183 41.5t159 116.5l182 -129 q-107 -125 -250 -183.5t-286 -58.5q-186 0 -335 74t-235 213t-86 320zM928 1585q0 53 40.5 93t94.5 40q46 0 77 -30t31 -76q0 -54 -41.5 -94.5t-95.5 -40.5q-46 0 -76 31t-30 77z" />
<glyph unicode="&#x10b;" horiz-adv-x="1019" d="M68 422q0 161 75 297t206 215.5t288 79.5q139 0 236 -51t151 -140l-162 -123q-33 59 -92.5 91t-132.5 32q-155 0 -251.5 -115t-96.5 -276q0 -125 77 -195.5t195 -70.5q136 0 227 108l117 -143q-148 -156 -364 -156q-213 0 -343 122t-130 325zM641 1255q0 53 40.5 93.5 t94.5 40.5q46 0 77.5 -30.5t31.5 -76.5q0 -54 -41.5 -94.5t-95.5 -40.5q-46 0 -76.5 31t-30.5 77z" />
<glyph unicode="&#x10c;" horiz-adv-x="1396" d="M104 582q0 178 64.5 331t172.5 256t250.5 161.5t297.5 58.5q217 0 366 -99t220 -260l-230 -82q-48 112 -145.5 170t-222.5 58q-102 0 -197 -43t-166.5 -118t-114.5 -184.5t-43 -234.5q0 -180 113.5 -294t302.5 -114q93 0 183 41.5t159 116.5l182 -129 q-107 -125 -250 -183.5t-286 -58.5q-186 0 -335 74t-235 213t-86 320zM795 1786h133l114 -197l197 197h139l-256 -295h-196z" />
<glyph unicode="&#x10d;" horiz-adv-x="1019" d="M68 422q0 161 75 297t206 215.5t288 79.5q139 0 236 -51t151 -140l-162 -123q-33 59 -92.5 91t-132.5 32q-155 0 -251.5 -115t-96.5 -276q0 -125 77 -195.5t195 -70.5q136 0 227 108l117 -143q-148 -156 -364 -156q-213 0 -343 122t-130 325zM518 1434h133l115 -197 l197 197h139l-256 -295h-197z" />
<glyph unicode="&#x10e;" horiz-adv-x="1454" d="M35 0l301 1366h498q114 0 219.5 -43t185.5 -118.5t128 -186t48 -236.5q0 -113 -30.5 -221.5t-98.5 -211t-167.5 -179.5t-248.5 -123.5t-329 -46.5h-506zM322 211h262q132 0 242.5 44.5t184.5 120.5t115 177t41 213q0 168 -107 278.5t-269 110.5h-261zM725 1786h133 l115 -197l196 197h140l-256 -295h-197z" />
<glyph unicode="&#x10f;" horiz-adv-x="1374" d="M66 385q0 116 36 228t100.5 201.5t164.5 144.5t219 55q106 0 191.5 -44t135.5 -122l115 518h215l-303 -1366h-215l31 131q-131 -156 -312 -156q-170 0 -274 109t-104 301zM291 428q0 -118 68.5 -190t175.5 -72q76 0 144.5 39.5t115.5 101.5l84 383q-35 59 -104 96 t-157 37q-94 0 -170 -56t-116.5 -146t-40.5 -193zM1253 1026q52 24 98 65.5t64 84.5h-16q-37 0 -63.5 25.5t-26.5 68.5q0 50 39.5 86.5t87.5 36.5q47 0 78.5 -31.5t31.5 -87.5q0 -89 -66 -179t-161 -137z" />
<glyph unicode="&#x110;" horiz-adv-x="1507" d="M39 588l43 192h178l129 586h498q114 0 219.5 -43t185.5 -118.5t128 -186t48 -236.5q0 -113 -30.5 -221.5t-98.5 -211t-167.5 -179.5t-248.5 -123.5t-329 -46.5h-506l129 588h-178zM375 211h268q130 1 240 46t183 121t114 176.5t41 211.5q0 167 -107 278t-270 111h-260 l-84 -375h323l-43 -192h-323z" />
<glyph unicode="&#x111;" horiz-adv-x="1200" d="M66 385q0 116 36 228t100.5 201.5t164.5 144.5t219 55q106 0 191.5 -44t135.5 -122l54 239h-326l27 127h325l35 152h215l-35 -152h107l-25 -127h-108l-242 -1087h-215l31 131q-131 -156 -312 -156q-170 0 -274 109t-104 301zM291 428q0 -118 68.5 -190t175.5 -72 q76 0 144.5 39.5t115.5 101.5l84 383q-35 59 -104 96t-157 37q-94 0 -170 -56t-116.5 -146t-40.5 -193z" />
<glyph unicode="&#x112;" horiz-adv-x="1181" d="M35 0l301 1366h936l-45 -211h-697l-77 -352h682l-48 -211h-681l-84 -381h696l-47 -211h-936zM465 1532l29 127h741l-29 -127h-741z" />
<glyph unicode="&#x113;" horiz-adv-x="1140" d="M68 418q0 160 73.5 297t203.5 218t288 81q195 0 316.5 -119t121.5 -317q0 -77 -20 -154h-764q-2 -6 -2 -33q0 -95 79 -167t220 -72q71 0 142.5 22t121.5 62l70 -152q-71 -50 -164.5 -79.5t-186.5 -29.5q-229 0 -364 120t-135 323zM309 578h563h5q0 3 1 13t1 13 q0 101 -68.5 167.5t-192.5 66.5q-115 0 -202.5 -77t-106.5 -183zM352 1180l29 127h741l-28 -127h-742z" />
<glyph unicode="&#x114;" horiz-adv-x="1181" d="M35 0l301 1366h936l-45 -211h-697l-77 -352h682l-48 -211h-681l-84 -381h696l-47 -211h-936zM502 1651l112 84q32 -64 91 -101t141 -37q163 0 291 138l84 -84q-81 -85 -185 -133t-213 -48q-107 0 -191.5 48.5t-129.5 132.5z" />
<glyph unicode="&#x115;" horiz-adv-x="1140" d="M68 418q0 160 73.5 297t203.5 218t288 81q195 0 316.5 -119t121.5 -317q0 -77 -20 -154h-764q-2 -6 -2 -33q0 -95 79 -167t220 -72q71 0 142.5 22t121.5 62l70 -152q-71 -50 -164.5 -79.5t-186.5 -29.5q-229 0 -364 120t-135 323zM309 578h563h5q0 3 1 13t1 13 q0 101 -68.5 167.5t-192.5 66.5q-115 0 -202.5 -77t-106.5 -183zM408 1325l112 84q32 -64 91 -100.5t141 -36.5q163 0 290 137l84 -84q-81 -84 -184.5 -132t-212.5 -48q-108 0 -192 48t-129 132z" />
<glyph unicode="&#x116;" horiz-adv-x="1181" d="M35 0l301 1366h936l-45 -211h-697l-77 -352h682l-48 -211h-681l-84 -381h696l-47 -211h-936zM741 1585q0 53 41 93t95 40q46 0 77 -30t31 -76q0 -54 -41.5 -94.5t-95.5 -40.5q-46 0 -76.5 31t-30.5 77z" />
<glyph unicode="&#x117;" horiz-adv-x="1140" d="M68 418q0 160 73.5 297t203.5 218t288 81q195 0 316.5 -119t121.5 -317q0 -77 -20 -154h-764q-2 -6 -2 -33q0 -95 79 -167t220 -72q71 0 142.5 22t121.5 62l70 -152q-71 -50 -164.5 -79.5t-186.5 -29.5q-229 0 -364 120t-135 323zM309 578h563h5q0 3 1 13t1 13 q0 101 -68.5 167.5t-192.5 66.5q-115 0 -202.5 -77t-106.5 -183zM633 1255q0 53 40.5 93.5t94.5 40.5q46 0 77.5 -30.5t31.5 -76.5q0 -54 -42 -94.5t-96 -40.5q-46 0 -76 31t-30 77z" />
<glyph unicode="&#x118;" horiz-adv-x="1181" d="M35 0l301 1366h936l-45 -211h-697l-77 -352h682l-48 -211h-681l-84 -381h696l-47 -211q-201 -88 -201 -211q0 -35 22 -54.5t58 -19.5q60 0 104 76l78 -63q-80 -109 -190 -109q-79 0 -131 40t-52 112q0 134 134 229h-758z" />
<glyph unicode="&#x119;" horiz-adv-x="1140" d="M68 418q0 160 73.5 297t203.5 218t288 81q195 0 316.5 -119t121.5 -317q0 -77 -20 -154h-764q-2 -6 -2 -33q0 -95 79 -167t220 -72q71 0 142.5 22t121.5 62l70 -152q-76 -56 -181 -84q-200 -88 -200 -211q0 -35 21.5 -54.5t57.5 -19.5q61 0 105 76l78 -63 q-80 -109 -191 -109q-79 0 -130.5 40t-51.5 112q0 117 102 206q-213 11 -336.5 128.5t-123.5 312.5zM309 578h568q0 3 1 13t1 13q0 101 -68.5 167.5t-192.5 66.5q-115 0 -202.5 -77t-106.5 -183z" />
<glyph unicode="&#x11a;" horiz-adv-x="1181" d="M35 0l301 1366h936l-45 -211h-697l-77 -352h682l-48 -211h-681l-84 -381h696l-47 -211h-936zM608 1786h133l115 -197l197 197h139l-256 -295h-197z" />
<glyph unicode="&#x11b;" horiz-adv-x="1140" d="M68 418q0 160 73.5 297t203.5 218t288 81q195 0 316.5 -119t121.5 -317q0 -77 -20 -154h-764q-2 -6 -2 -33q0 -95 79 -167t220 -72q71 0 142.5 22t121.5 62l70 -152q-71 -50 -164.5 -79.5t-186.5 -29.5q-229 0 -364 120t-135 323zM309 578h563h5q0 3 1 13t1 13 q0 101 -68.5 167.5t-192.5 66.5q-115 0 -202.5 -77t-106.5 -183zM496 1434h133l114 -197l197 197h139l-256 -295h-196z" />
<glyph unicode="&#x11c;" horiz-adv-x="1468" d="M104 582q0 230 106 415t290 288.5t409 103.5q196 0 338.5 -90.5t212.5 -231.5l-217 -94q-43 92 -143 147.5t-223 55.5q-137 0 -256.5 -74.5t-192 -208.5t-72.5 -297q0 -178 113.5 -293t302.5 -115q172 0 311 121l47 215h-409l47 211h647l-115 -518q-104 -116 -242.5 -179 t-297.5 -63q-187 0 -336 74.5t-234.5 213.5t-85.5 319zM735 1491l256 295h197l131 -295h-131l-117 199l-194 -199h-142z" />
<glyph unicode="&#x11d;" d="M-29 -231l129 143q48 -67 136 -102t194 -35q242 0 303 276l25 109q-58 -74 -140.5 -116t-177.5 -42q-77 0 -143.5 24t-118.5 71.5t-82 126.5t-30 182q0 92 22.5 181t67 166t105.5 135.5t143.5 92t175.5 33.5q95 0 185 -45.5t146 -120.5l33 141h215l-209 -938 q-23 -103 -64 -182.5t-90.5 -129.5t-111 -82.5t-122.5 -45t-128 -12.5q-309 0 -463 170zM291 444q0 -115 67.5 -183t178.5 -68q71 0 140.5 37.5t117.5 95.5l79 358q-37 64 -109.5 101.5t-160.5 37.5q-137 0 -225 -111.5t-88 -267.5zM455 1122l256 295h196l131 -295h-131 l-116 199l-195 -199h-141z" />
<glyph unicode="&#x11e;" horiz-adv-x="1468" d="M104 582q0 230 106 415t290 288.5t409 103.5q196 0 338.5 -90.5t212.5 -231.5l-217 -94q-43 92 -143 147.5t-223 55.5q-137 0 -256.5 -74.5t-192 -208.5t-72.5 -297q0 -178 113.5 -293t302.5 -115q172 0 311 121l47 215h-409l47 211h647l-115 -518q-104 -116 -242.5 -179 t-297.5 -63q-187 0 -336 74.5t-234.5 213.5t-85.5 319zM700 1651l113 84q69 -138 231 -138q163 0 291 138l84 -84q-81 -85 -184.5 -133t-212.5 -48q-108 0 -192.5 48.5t-129.5 132.5z" />
<glyph unicode="&#x11f;" d="M-29 -231l129 143q48 -67 136 -102t194 -35q242 0 303 276l25 109q-58 -74 -140.5 -116t-177.5 -42q-77 0 -143.5 24t-118.5 71.5t-82 126.5t-30 182q0 92 22.5 181t67 166t105.5 135.5t143.5 92t175.5 33.5q95 0 185 -45.5t146 -120.5l33 141h215l-209 -938 q-23 -103 -64 -182.5t-90.5 -129.5t-111 -82.5t-122.5 -45t-128 -12.5q-309 0 -463 170zM291 444q0 -115 67.5 -183t178.5 -68q71 0 140.5 37.5t117.5 95.5l79 358q-37 64 -109.5 101.5t-160.5 37.5q-137 0 -225 -111.5t-88 -267.5zM414 1325l112 84q32 -64 91 -100.5 t141 -36.5q164 0 291 137l84 -84q-81 -84 -185 -132t-213 -48q-108 0 -192 48t-129 132z" />
<glyph unicode="&#x120;" horiz-adv-x="1468" d="M104 582q0 230 106 415t290 288.5t409 103.5q196 0 338.5 -90.5t212.5 -231.5l-217 -94q-43 92 -143 147.5t-223 55.5q-137 0 -256.5 -74.5t-192 -208.5t-72.5 -297q0 -178 113.5 -293t302.5 -115q172 0 311 121l47 215h-409l47 211h647l-115 -518q-104 -116 -242.5 -179 t-297.5 -63q-187 0 -336 74.5t-234.5 213.5t-85.5 319zM928 1585q0 53 40.5 93t94.5 40q46 0 77 -30t31 -76q0 -54 -41.5 -94.5t-95.5 -40.5q-46 0 -76 31t-30 77z" />
<glyph unicode="&#x121;" d="M-29 -231l129 143q48 -67 136 -102t194 -35q242 0 303 276l25 109q-58 -74 -140.5 -116t-177.5 -42q-77 0 -143.5 24t-118.5 71.5t-82 126.5t-30 182q0 92 22.5 181t67 166t105.5 135.5t143.5 92t175.5 33.5q95 0 185 -45.5t146 -120.5l33 141h215l-209 -938 q-23 -103 -64 -182.5t-90.5 -129.5t-111 -82.5t-122.5 -45t-128 -12.5q-309 0 -463 170zM291 444q0 -115 67.5 -183t178.5 -68q71 0 140.5 37.5t117.5 95.5l79 358q-37 64 -109.5 101.5t-160.5 37.5q-137 0 -225 -111.5t-88 -267.5zM651 1255q0 53 40.5 93.5t94.5 40.5 q46 0 77.5 -30.5t31.5 -76.5q0 -54 -41.5 -94.5t-95.5 -40.5q-46 0 -76.5 31t-30.5 77z" />
<glyph unicode="&#x122;" horiz-adv-x="1468" d="M104 582q0 230 106 415t290 288.5t409 103.5q196 0 338.5 -90.5t212.5 -231.5l-217 -94q-43 92 -143 147.5t-223 55.5q-137 0 -256.5 -74.5t-192 -208.5t-72.5 -297q0 -178 113.5 -293t302.5 -115q172 0 311 121l47 215h-409l47 211h647l-115 -518q-104 -116 -242.5 -179 t-297.5 -63q-187 0 -336 74.5t-234.5 213.5t-85.5 319zM469 -496q52 24 98 65.5t64 84.5h-17q-37 0 -63.5 25.5t-26.5 68.5q0 50 39.5 86.5t87.5 36.5q47 0 79 -31.5t32 -87.5q0 -89 -66 -178.5t-161 -136.5z" />
<glyph unicode="&#x123;" d="M-29 -231l129 143q48 -67 136 -102t194 -35q242 0 303 276l25 109q-58 -74 -140.5 -116t-177.5 -42q-77 0 -143.5 24t-118.5 71.5t-82 126.5t-30 182q0 92 22.5 181t67 166t105.5 135.5t143.5 92t175.5 33.5q95 0 185 -45.5t146 -120.5l33 141h215l-209 -938 q-23 -103 -64 -182.5t-90.5 -129.5t-111 -82.5t-122.5 -45t-128 -12.5q-309 0 -463 170zM291 444q0 -115 67.5 -183t178.5 -68q71 0 140.5 37.5t117.5 95.5l79 358q-37 64 -109.5 101.5t-160.5 37.5q-137 0 -225 -111.5t-88 -267.5zM629 1262q0 91 67 181.5t164 137.5 l66 -68q-53 -27 -99.5 -68t-62.5 -83h16q37 0 63.5 -26t26.5 -70q0 -50 -39.5 -87.5t-89.5 -37.5q-47 0 -79.5 32.5t-32.5 88.5z" />
<glyph unicode="&#x124;" horiz-adv-x="1480" d="M35 0l301 1366h239l-122 -557h710l123 557h240l-301 -1366h-240l131 598h-710l-132 -598h-239zM666 1491l256 295h196l131 -295h-131l-117 199l-194 -199h-141z" />
<glyph unicode="&#x125;" horiz-adv-x="1163" d="M31 0l301 1366h215l-115 -510q166 158 338 158q139 0 222 -66t83 -182q0 -44 -12 -84l-150 -682h-215l138 623q8 32 8 61q0 71 -50.5 105t-134.5 34q-129 0 -262 -133l-151 -690h-215zM180 1491l256 295h197l131 -295h-131l-117 199l-194 -199h-142z" />
<glyph unicode="&#x126;" horiz-adv-x="1517" d="M55 0l226 1026h-144l27 127h145l47 213h240l-47 -213h711l47 213h239l-47 -213h139l-26 -127h-142l-225 -1026h-239l131 598h-711l-131 -598h-240zM473 809h711l47 217h-711z" />
<glyph unicode="&#x127;" horiz-adv-x="1171" d="M39 0l240 1087h-129l28 127h127l35 152h215l-35 -152h307l-28 -127h-307l-52 -231q166 158 338 158q139 0 222 -66t83 -182q0 -44 -12 -84l-149 -682h-215l137 623q8 32 8 61q0 71 -50 105t-134 34q-129 0 -262 -133l-152 -690h-215z" />
<glyph unicode="&#x128;" horiz-adv-x="530" d="M35 0l301 1366h239l-301 -1366h-239zM160 1499q28 133 85.5 204t155.5 71q41 0 72 -16.5t50 -40t36 -47t39 -40t49 -16.5q73 0 109 147h118q-28 -133 -86 -203.5t-157 -70.5q-41 0 -71.5 16.5t-49.5 40t-35.5 47t-38.5 40t-49 16.5q-73 0 -106 -148h-121z" />
<glyph unicode="&#x129;" horiz-adv-x="493" d="M29 0l219 989h215l-219 -989h-215zM61 1116q28 133 86 204t156 71q41 0 72 -16.5t50 -40t36 -47t39 -40t49 -16.5q72 0 108 147h119q-57 -274 -244 -274q-41 0 -71.5 16.5t-49 40t-35 47t-38.5 40t-49 16.5q-74 0 -107 -148h-121z" />
<glyph unicode="&#x12a;" horiz-adv-x="530" d="M35 0l301 1366h239l-301 -1366h-239zM123 1532l29 127h741l-29 -127h-741z" />
<glyph unicode="&#x12b;" horiz-adv-x="493" d="M27 1180l28 127h742l-29 -127h-741zM29 0l219 989h215l-219 -989h-215z" />
<glyph unicode="&#x12c;" horiz-adv-x="530" d="M35 0l301 1366h239l-301 -1366h-239zM164 1651l112 84q32 -64 91 -101t141 -37q163 0 291 138l84 -84q-81 -85 -185 -133t-213 -48q-107 0 -191.5 48.5t-129.5 132.5z" />
<glyph unicode="&#x12d;" horiz-adv-x="493" d="M29 0l219 989h215l-219 -989h-215zM78 1325l112 84q32 -64 91 -100.5t141 -36.5q164 0 291 137l84 -84q-81 -84 -185 -132t-213 -48q-108 0 -192 48t-129 132z" />
<glyph unicode="&#x12e;" horiz-adv-x="530" d="M-37 -229q0 135 133 229h-61l301 1366h239l-301 -1366q-200 -88 -200 -211q0 -35 22 -54.5t58 -19.5q60 0 104 76l78 -63q-80 -109 -191 -109q-79 0 -130.5 40t-51.5 112z" />
<glyph unicode="&#x12f;" horiz-adv-x="493" d="M-68 -229q0 134 134 229h-37l219 989h215l-219 -989q-201 -88 -201 -211q0 -35 22 -54.5t58 -19.5q60 0 104 76l78 -63q-80 -109 -190 -109q-79 0 -131 40t-52 112zM274 1225q0 67 48 109t104 42q52 0 86.5 -33t34.5 -81q0 -67 -48 -109.5t-104 -42.5q-52 0 -86.5 34 t-34.5 81z" />
<glyph unicode="&#x130;" horiz-adv-x="530" d="M35 0l301 1366h239l-301 -1366h-239zM389 1585q0 53 40.5 93t94.5 40q46 0 77.5 -30.5t31.5 -75.5q0 -54 -41.5 -94.5t-95.5 -40.5q-46 0 -76.5 31t-30.5 77z" />
<glyph unicode="&#x131;" horiz-adv-x="493" d="M29 0l219 989h215l-219 -989h-215z" />
<glyph unicode="&#x132;" horiz-adv-x="1517" d="M35 0l301 1366h239l-301 -1366h-239zM477 137l135 178q34 -58 96.5 -92.5t139.5 -34.5q107 0 175.5 66.5t94.5 181.5l205 930h240l-207 -932q-52 -233 -174 -346t-320 -113q-119 0 -222.5 41.5t-162.5 120.5z" />
<glyph unicode="&#x133;" horiz-adv-x="987" d="M29 0l219 989h215l-219 -989h-215zM113 -317l94 153q48 -61 133 -61q131 0 170 168l231 1046h215l-231 -1046q-37 -167 -121 -255.5t-233 -88.5q-174 0 -258 84zM274 1225q0 67 48 109t104 42q52 0 86.5 -33t34.5 -81q0 -67 -48 -109.5t-104 -42.5q-52 0 -86.5 34 t-34.5 81zM768 1225q0 67 48 109t104 42q52 0 86 -33t34 -81q0 -68 -47.5 -110t-103.5 -42q-52 0 -86.5 34t-34.5 81z" />
<glyph unicode="&#x134;" horiz-adv-x="987" d="M-53 137l135 178q34 -58 96 -92.5t139 -34.5q107 0 176 67t95 181l205 930h239l-207 -932q-52 -233 -173.5 -346t-319.5 -113q-119 0 -222.5 41.5t-162.5 120.5zM651 1491l256 295h197l131 -295h-131l-117 199l-194 -199h-142z" />
<glyph unicode="&#x135;" horiz-adv-x="493" d="M-381 -317l98 167q48 -61 133 -61q128 0 166 154l232 1046h215l-232 -1046q-37 -167 -121 -255.5t-233 -88.5q-174 0 -258 84zM100 1139l256 295h197l131 -295h-131l-117 198l-194 -198h-142z" />
<glyph unicode="&#x136;" horiz-adv-x="1290" d="M35 0l301 1366h239l-139 -631l662 631h309l-696 -643l438 -723h-283l-336 586l-159 -150l-97 -436h-239zM313 -496q52 24 98 65.5t64 84.5h-16q-37 0 -63.5 25.5t-26.5 68.5q0 50 39.5 86.5t87.5 36.5q47 0 78.5 -31.5t31.5 -87.5q0 -89 -66 -178.5t-161 -136.5z" />
<glyph unicode="&#x137;" horiz-adv-x="1079" d="M29 0l301 1366h215l-187 -840l533 463h274l-510 -448l299 -541h-258l-217 416l-176 -150l-59 -266h-215zM209 -496q52 24 98 65.5t64 84.5h-17q-37 0 -63.5 25.5t-26.5 68.5q0 50 39.5 86.5t87.5 36.5q47 0 79 -31.5t32 -87.5q0 -89 -66 -178.5t-162 -136.5z" />
<glyph unicode="&#x138;" horiz-adv-x="1079" d="M29 0l219 989h215l-105 -463l533 463h274l-510 -448l299 -541h-258l-217 416l-176 -150l-59 -266h-215z" />
<glyph unicode="&#x139;" horiz-adv-x="1036" d="M18 0l301 1366h240l-254 -1155h602l-47 -211h-842zM532 1491l353 295h209l-404 -295h-158z" />
<glyph unicode="&#x13a;" horiz-adv-x="493" d="M29 0l301 1366h215l-301 -1366h-215zM309 1491l353 295h208l-403 -295h-158z" />
<glyph unicode="&#x13b;" horiz-adv-x="1036" d="M18 0l301 1366h240l-254 -1155h602l-47 -211h-842zM182 -496q52 24 98 65.5t64 84.5h-16q-37 0 -63.5 25.5t-26.5 68.5q0 50 39.5 86.5t87.5 36.5q47 0 78.5 -31.5t31.5 -87.5q0 -89 -66 -178.5t-161 -136.5z" />
<glyph unicode="&#x13c;" horiz-adv-x="493" d="M-84 -496q52 24 98 65.5t64 84.5h-17q-37 0 -63.5 25.5t-26.5 68.5q0 50 39.5 86.5t87.5 36.5q47 0 79 -31.5t32 -87.5q0 -89 -66 -178.5t-161 -136.5zM29 0l301 1366h215l-301 -1366h-215z" />
<glyph unicode="&#x13d;" horiz-adv-x="1036" d="M18 0l301 1366h240l-254 -1155h602l-47 -211h-842zM657 1026q52 24 98 65.5t64 84.5h-16q-37 0 -63.5 25.5t-26.5 68.5q0 50 39.5 86.5t87.5 36.5q47 0 78.5 -31.5t31.5 -87.5q0 -89 -66 -179t-161 -137z" />
<glyph unicode="&#x13e;" horiz-adv-x="671" d="M29 0l301 1366h215l-301 -1366h-215zM580 1026q52 24 97.5 65.5t63.5 84.5h-16q-37 0 -63.5 25.5t-26.5 68.5q0 50 39.5 86.5t87.5 36.5q47 0 78.5 -31.5t31.5 -87.5q0 -89 -66 -179t-161 -137z" />
<glyph unicode="&#x13f;" horiz-adv-x="1099" d="M18 0l301 1366h240l-254 -1155h602l-47 -211h-842zM707 692q0 63 46 108.5t109 45.5q55 0 93 -38.5t38 -92.5q0 -64 -46 -110t-111 -46q-54 0 -91.5 38.5t-37.5 94.5z" />
<glyph unicode="&#x140;" horiz-adv-x="718" d="M29 0l301 1366h215l-301 -1366h-215zM465 492q0 63 46.5 108t109.5 45q55 0 93 -38.5t38 -92.5q0 -64 -46.5 -110t-111.5 -46q-54 0 -91.5 39t-37.5 95z" />
<glyph unicode="&#x141;" horiz-adv-x="1085" d="M2 420l43 198l180 93l146 655h239l-114 -516l196 100l-43 -200l-196 -101l-97 -438h602l-47 -211h-841l112 512z" />
<glyph unicode="&#x142;" horiz-adv-x="612" d="M4 438l37 162l201 102l147 664h215l-119 -541l203 105l-35 -160l-204 -104l-146 -666h-215l119 543z" />
<glyph unicode="&#x143;" horiz-adv-x="1474" d="M35 0l301 1366h246l485 -958l213 958h240l-301 -1366h-232l-493 989l-220 -989h-239zM799 1491l352 295h209l-404 -295h-157z" />
<glyph unicode="&#x144;" horiz-adv-x="1163" d="M39 0l219 989h215l-31 -133q166 158 338 158q139 0 222 -66t83 -182q0 -38 -12 -84l-149 -682h-215l137 621q8 40 8 63q0 71 -50 105t-134 34q-70 0 -138 -38t-124 -95l-154 -690h-215zM565 1139l353 295h208l-403 -295h-158z" />
<glyph unicode="&#x145;" horiz-adv-x="1474" d="M35 0l301 1366h246l485 -958l213 958h240l-301 -1366h-232l-493 989l-220 -989h-239zM406 -496q52 24 97.5 65.5t63.5 84.5h-16q-37 0 -63.5 25.5t-26.5 68.5q0 50 39.5 86.5t87.5 36.5q47 0 78.5 -31.5t31.5 -87.5q0 -89 -66 -178.5t-161 -136.5z" />
<glyph unicode="&#x146;" horiz-adv-x="1163" d="M39 0l219 989h215l-31 -133q166 158 338 158q139 0 222 -66t83 -182q0 -38 -12 -84l-149 -682h-215l137 621q8 40 8 63q0 71 -50 105t-134 34q-70 0 -138 -38t-124 -95l-154 -690h-215zM250 -496q52 24 98 65.5t64 84.5h-17q-37 0 -63.5 25.5t-26.5 68.5q0 50 39.5 86.5 t87.5 36.5q47 0 79 -31.5t32 -87.5q0 -89 -66 -178.5t-162 -136.5z" />
<glyph unicode="&#x147;" horiz-adv-x="1474" d="M35 0l301 1366h246l485 -958l213 958h240l-301 -1366h-232l-493 989l-220 -989h-239zM729 1786h133l115 -197l197 197h139l-256 -295h-197z" />
<glyph unicode="&#x148;" horiz-adv-x="1163" d="M39 0l219 989h215l-31 -133q166 158 338 158q139 0 222 -66t83 -182q0 -38 -12 -84l-149 -682h-215l137 621q8 40 8 63q0 71 -50 105t-134 34q-70 0 -138 -38t-124 -95l-154 -690h-215zM496 1434h133l114 -197l197 197h139l-256 -295h-196z" />
<glyph unicode="&#x149;" horiz-adv-x="1163" d="M39 0l219 989h215l-31 -133q166 158 338 158q139 0 222 -66t83 -182q0 -38 -12 -84l-149 -682h-215l137 621q8 40 8 63q0 71 -50 105t-134 34q-70 0 -138 -38t-124 -95l-154 -690h-215zM252 1180q52 24 98 65.5t64 83.5h-17q-37 0 -63.5 25.5t-26.5 68.5q0 50 39.5 86.5 t87.5 36.5q47 0 79 -31.5t32 -87.5q0 -89 -66 -178.5t-162 -136.5z" />
<glyph unicode="&#x14a;" horiz-adv-x="1474" d="M35 0l301 1366h246l485 -958l213 958h240l-291 -1315q-52 -232 -175 -342t-317 -110q-123 0 -224.5 42t-160.5 119l129 158q33 -57 96 -92t140 -35q98 0 165.5 57.5t98.5 163.5l-487 977l-220 -989h-239z" />
<glyph unicode="&#x14b;" horiz-adv-x="1163" d="M29 0l219 989h215l-31 -133q166 158 338 158q136 0 220.5 -65t84.5 -185q0 -24 -12 -82l-164 -739q-36 -165 -120 -254.5t-232 -89.5q-174 0 -258 84l98 167q54 -61 133 -61q129 0 164 154l152 678q8 50 8 61q0 73 -50.5 107t-134.5 34q-70 0 -138 -38t-124 -95 l-153 -690h-215z" />
<glyph unicode="&#x14c;" horiz-adv-x="1566" d="M104 582q0 223 104 408.5t284 292t397 106.5q183 0 330.5 -71.5t235 -210.5t87.5 -323q0 -222 -103 -408t-283 -293.5t-396 -107.5q-137 0 -257 42.5t-208.5 119.5t-139.5 192t-51 253zM356 596q0 -187 118 -297.5t298 -110.5q105 0 200.5 44.5t165.5 121t111 185 t41 229.5q0 189 -118 298.5t-300 109.5q-105 0 -200.5 -44.5t-164.5 -121t-110 -185t-41 -229.5zM639 1532l29 127h741l-29 -127h-741z" />
<glyph unicode="&#x14d;" horiz-adv-x="1175" d="M68 422q0 115 42.5 222.5t115.5 189.5t179 131t226 49q221 0 347 -123t126 -322q0 -115 -42.5 -223t-115.5 -190t-179 -131.5t-226 -49.5q-221 0 -347 124t-126 323zM291 430q0 -122 68.5 -193t189.5 -71q94 0 171.5 56.5t119 146t41.5 190.5q0 122 -68.5 193t-189.5 71 q-142 0 -237 -118t-95 -275zM367 1180l28 127h742l-29 -127h-741z" />
<glyph unicode="&#x14e;" horiz-adv-x="1566" d="M104 582q0 223 104 408.5t284 292t397 106.5q183 0 330.5 -71.5t235 -210.5t87.5 -323q0 -222 -103 -408t-283 -293.5t-396 -107.5q-137 0 -257 42.5t-208.5 119.5t-139.5 192t-51 253zM356 596q0 -187 118 -297.5t298 -110.5q105 0 200.5 44.5t165.5 121t111 185 t41 229.5q0 189 -118 298.5t-300 109.5q-105 0 -200.5 -44.5t-164.5 -121t-110 -185t-41 -229.5zM676 1651l112 84q32 -64 91 -101t141 -37q163 0 291 138l84 -84q-81 -85 -185 -133t-213 -48q-107 0 -191.5 48.5t-129.5 132.5z" />
<glyph unicode="&#x14f;" horiz-adv-x="1175" d="M68 422q0 115 42.5 222.5t115.5 189.5t179 131t226 49q221 0 347 -123t126 -322q0 -115 -42.5 -223t-115.5 -190t-179 -131.5t-226 -49.5q-221 0 -347 124t-126 323zM291 430q0 -122 68.5 -193t189.5 -71q94 0 171.5 56.5t119 146t41.5 190.5q0 122 -68.5 193t-189.5 71 q-142 0 -237 -118t-95 -275zM410 1325l112 84q32 -64 91 -100.5t141 -36.5q163 0 290 137l84 -84q-81 -84 -184.5 -132t-212.5 -48q-108 0 -192 48t-129 132z" />
<glyph unicode="&#x150;" horiz-adv-x="1566" d="M104 582q0 223 104 408.5t284 292t397 106.5q183 0 330.5 -71.5t235 -210.5t87.5 -323q0 -222 -103 -408t-283 -293.5t-396 -107.5q-137 0 -257 42.5t-208.5 119.5t-139.5 192t-51 253zM356 596q0 -187 118 -297.5t298 -110.5q105 0 200.5 44.5t165.5 121t111 185 t41 229.5q0 189 -118 298.5t-300 109.5q-105 0 -200.5 -44.5t-164.5 -121t-110 -185t-41 -229.5zM758 1491l250 295h184l-301 -295h-133zM1057 1491l250 295h184l-301 -295h-133z" />
<glyph unicode="&#x151;" horiz-adv-x="1175" d="M68 422q0 115 42.5 222.5t115.5 189.5t179 131t226 49q221 0 347 -123t126 -322q0 -115 -42.5 -223t-115.5 -190t-179 -131.5t-226 -49.5q-221 0 -347 124t-126 323zM291 430q0 -122 68.5 -193t189.5 -71q94 0 171.5 56.5t119 146t41.5 190.5q0 122 -68.5 193t-189.5 71 q-142 0 -237 -118t-95 -275zM485 1139l250 295h185l-302 -295h-133zM784 1139l250 295h185l-301 -295h-134z" />
<glyph unicode="&#x152;" horiz-adv-x="2238" d="M104 582q0 175 62.5 327t168.5 255.5t247 162.5t295 59q343 0 464 -268l56 248h936l-47 -211h-697l-78 -352h682l-47 -211h-682l-84 -381h697l-45 -211h-936l37 178q-165 -203 -455 -203q-161 0 -292.5 77.5t-206.5 216.5t-75 313zM356 596q0 -184 112.5 -296t289.5 -112 q131 0 245.5 65.5t186.5 180.5l96 430q-32 148 -138 229t-261 81q-148 0 -270 -76.5t-191.5 -209t-69.5 -292.5z" />
<glyph unicode="&#x153;" horiz-adv-x="1935" d="M68 422q0 112 40.5 218.5t112 189.5t178 133.5t228.5 50.5q79 0 148.5 -24t116 -62.5t77 -79t45.5 -80.5q29 38 53 65t65.5 64t82.5 60t99 40t120 17q122 0 219 -49t156 -149.5t59 -237.5q0 -72 -21 -154h-755q-2 -4 -2 -33q0 -96 78.5 -167.5t215.5 -71.5q70 0 142 23 t119 61l69 -152q-68 -49 -158 -79t-188 -30q-83 0 -156.5 23.5t-124 61t-83.5 79t-48 82.5q-79 -97 -126 -137q-128 -109 -293 -109q-212 0 -340.5 119.5t-128.5 327.5zM291 430q0 -123 67 -193.5t187 -70.5q92 0 167.5 54.5t117.5 144.5t42 194q0 132 -71.5 198t-182.5 66 q-136 0 -231.5 -115.5t-95.5 -277.5zM1114 578h559q0 2 1 10.5t1 15.5q0 101 -66 167.5t-190 66.5q-118 0 -204 -81.5t-101 -178.5z" />
<glyph unicode="&#x154;" horiz-adv-x="1288" d="M35 0l301 1366h549q79 0 152.5 -26t130 -72.5t90.5 -118t34 -156.5q0 -185 -115.5 -314.5t-297.5 -152.5l215 -526h-267l-190 510h-250l-113 -510h-239zM434 721h326h2q130 0 205 71t75 179q0 79 -59.5 131.5t-138.5 52.5h-314zM709 1491l352 295h209l-404 -295h-157z " />
<glyph unicode="&#x155;" horiz-adv-x="710" d="M29 0l219 989h215l-31 -137q72 80 157 121t202 41l-50 -217q-35 10 -86 10q-75 0 -146 -39t-118 -98l-147 -670h-215zM389 1139l352 295h209l-403 -295h-158z" />
<glyph unicode="&#x156;" horiz-adv-x="1288" d="M35 0l301 1366h549q79 0 152.5 -26t130 -72.5t90.5 -118t34 -156.5q0 -185 -115.5 -314.5t-297.5 -152.5l215 -526h-267l-190 510h-250l-113 -510h-239zM315 -496q52 24 98 65.5t64 84.5h-16q-37 0 -63.5 25.5t-26.5 68.5q0 50 39.5 86.5t87.5 36.5q47 0 78.5 -31.5 t31.5 -87.5q0 -89 -66 -178.5t-161 -136.5zM434 721h326h2q130 0 205 71t75 179q0 79 -59.5 131.5t-138.5 52.5h-314z" />
<glyph unicode="&#x157;" horiz-adv-x="710" d="M25 -496q52 24 97.5 65.5t63.5 84.5h-16q-37 0 -63.5 25.5t-26.5 68.5q0 50 39.5 86.5t87.5 36.5q47 0 78.5 -31.5t31.5 -87.5q0 -89 -66 -178.5t-161 -136.5zM29 0l219 989h215l-31 -137q72 80 157 121t202 41l-50 -217q-35 10 -86 10q-75 0 -146 -39t-118 -98 l-147 -670h-215z" />
<glyph unicode="&#x158;" horiz-adv-x="1288" d="M35 0l301 1366h549q79 0 152.5 -26t130 -72.5t90.5 -118t34 -156.5q0 -185 -115.5 -314.5t-297.5 -152.5l215 -526h-267l-190 510h-250l-113 -510h-239zM434 721h326h2q130 0 205 71t75 179q0 79 -59.5 131.5t-138.5 52.5h-314zM641 1786h133l115 -197l196 197h140 l-256 -295h-197z" />
<glyph unicode="&#x159;" horiz-adv-x="710" d="M29 0l219 989h215l-31 -137q72 80 157 121t202 41l-50 -217q-35 10 -86 10q-75 0 -146 -39t-118 -98l-147 -670h-215zM319 1434h134l114 -197l197 197h139l-256 -295h-196z" />
<glyph unicode="&#x15a;" horiz-adv-x="1216" d="M14 227l152 174q71 -98 193.5 -155.5t263.5 -57.5q121 0 184 60.5t63 136.5q0 40 -29 73.5t-76 56.5t-107.5 48t-123 47.5t-123 56t-107.5 72t-76 96.5t-29 128q0 82 37 159t102 136t163 95t212 36q160 0 298.5 -58.5t223.5 -161.5l-154 -172q-70 88 -180 134.5 t-223 46.5q-95 0 -160 -52t-65 -122q0 -42 37 -76t96 -60t130.5 -52.5t143.5 -60.5t131 -75.5t96 -105.5t37 -144q0 -90 -35.5 -171.5t-100 -145t-164.5 -101t-220 -37.5q-190 0 -350.5 70t-239.5 182zM666 1491l352 295h209l-404 -295h-157z" />
<glyph unicode="&#x15b;" horiz-adv-x="966" d="M-8 154l127 147q47 -60 141.5 -107t196.5 -47q82 0 131 39t49 95q0 31 -28 56.5t-73.5 43.5t-100 36.5t-109 42t-100 52.5t-73.5 75.5t-28 104.5q0 134 106 228t287 94q123 0 231 -44.5t173 -115.5l-117 -143q-35 53 -119 93t-174 40q-80 0 -126 -33t-46 -84 q0 -29 28 -52.5t73 -41.5t99.5 -36.5t109 -43t99.5 -54.5t73 -78t28 -108q0 -143 -111 -240.5t-301 -97.5q-136 0 -252.5 46t-193.5 133zM471 1139l352 295h209l-403 -295h-158z" />
<glyph unicode="&#x15c;" horiz-adv-x="1216" d="M14 227l152 174q71 -98 193.5 -155.5t263.5 -57.5q121 0 184 60.5t63 136.5q0 40 -29 73.5t-76 56.5t-107.5 48t-123 47.5t-123 56t-107.5 72t-76 96.5t-29 128q0 82 37 159t102 136t163 95t212 36q160 0 298.5 -58.5t223.5 -161.5l-154 -172q-70 88 -180 134.5 t-223 46.5q-95 0 -160 -52t-65 -122q0 -42 37 -76t96 -60t130.5 -52.5t143.5 -60.5t131 -75.5t96 -105.5t37 -144q0 -90 -35.5 -171.5t-100 -145t-164.5 -101t-220 -37.5q-190 0 -350.5 70t-239.5 182zM442 1491l256 295h197l131 -295h-131l-117 199l-194 -199h-142z" />
<glyph unicode="&#x15d;" horiz-adv-x="966" d="M-8 154l127 147q47 -60 141.5 -107t196.5 -47q82 0 131 39t49 95q0 31 -28 56.5t-73.5 43.5t-100 36.5t-109 42t-100 52.5t-73.5 75.5t-28 104.5q0 134 106 228t287 94q123 0 231 -44.5t173 -115.5l-117 -143q-35 53 -119 93t-174 40q-80 0 -126 -33t-46 -84 q0 -29 28 -52.5t73 -41.5t99.5 -36.5t109 -43t99.5 -54.5t73 -78t28 -108q0 -143 -111 -240.5t-301 -97.5q-136 0 -252.5 46t-193.5 133zM328 1139l256 295h196l131 -295h-131l-116 198l-195 -198h-141z" />
<glyph unicode="&#x15e;" horiz-adv-x="1216" d="M14 227l152 174q71 -98 193.5 -155.5t263.5 -57.5q121 0 184 60.5t63 136.5q0 40 -29 73.5t-76 56.5t-107.5 48t-123 47.5t-123 56t-107.5 72t-76 96.5t-29 128q0 82 37 159t102 136t163 95t212 36q160 0 298.5 -58.5t223.5 -161.5l-154 -172q-70 88 -180 134.5 t-223 46.5q-95 0 -160 -52t-65 -122q0 -42 37 -76t96 -60t130.5 -52.5t143.5 -60.5t131 -75.5t96 -105.5t37 -144q0 -90 -35.5 -171.5t-100 -145t-164.5 -101t-220 -37.5q-18 0 -80 5l-53 -89q29 23 66 23q52 0 85 -34t33 -91q0 -84 -63.5 -135t-161.5 -51q-75 0 -137 23 t-98 59l63 88q72 -72 174 -72q53 0 82 22t29 60q0 24 -17.5 38.5t-48.5 14.5q-40 0 -65 -31l-74 48l82 141q-134 26 -241 87.5t-165 145.5z" />
<glyph unicode="&#x15f;" horiz-adv-x="966" d="M-8 154l127 147q47 -60 141.5 -107t196.5 -47q82 0 131 39t49 95q0 31 -28 56.5t-73.5 43.5t-100 36.5t-109 42t-100 52.5t-73.5 75.5t-28 104.5q0 134 106 228t287 94q123 0 231 -44.5t173 -115.5l-117 -143q-35 53 -119 93t-174 40q-80 0 -126 -33t-46 -84 q0 -29 28 -52.5t73 -41.5t99.5 -36.5t109 -43t99.5 -54.5t73 -78t28 -108q0 -143 -111 -240.5t-301 -97.5h-32l-52 -84q29 23 66 23q52 0 85.5 -34t33.5 -91q0 -84 -64 -135t-162 -51q-75 0 -137 23t-98 59l63 88q72 -72 174 -72q53 0 82 22t29 60q0 24 -17.5 38.5 t-48.5 14.5q-40 0 -65 -31l-74 48l80 135q-194 36 -309 166z" />
<glyph unicode="&#x160;" horiz-adv-x="1216" d="M14 227l152 174q71 -98 193.5 -155.5t263.5 -57.5q121 0 184 60.5t63 136.5q0 40 -29 73.5t-76 56.5t-107.5 48t-123 47.5t-123 56t-107.5 72t-76 96.5t-29 128q0 82 37 159t102 136t163 95t212 36q160 0 298.5 -58.5t223.5 -161.5l-154 -172q-70 88 -180 134.5 t-223 46.5q-95 0 -160 -52t-65 -122q0 -42 37 -76t96 -60t130.5 -52.5t143.5 -60.5t131 -75.5t96 -105.5t37 -144q0 -90 -35.5 -171.5t-100 -145t-164.5 -101t-220 -37.5q-190 0 -350.5 70t-239.5 182zM586 1786h133l115 -197l196 197h139l-256 -295h-196z" />
<glyph unicode="&#x161;" horiz-adv-x="966" d="M-8 154l127 147q47 -60 141.5 -107t196.5 -47q82 0 131 39t49 95q0 31 -28 56.5t-73.5 43.5t-100 36.5t-109 42t-100 52.5t-73.5 75.5t-28 104.5q0 134 106 228t287 94q123 0 231 -44.5t173 -115.5l-117 -143q-35 53 -119 93t-174 40q-80 0 -126 -33t-46 -84 q0 -29 28 -52.5t73 -41.5t99.5 -36.5t109 -43t99.5 -54.5t73 -78t28 -108q0 -143 -111 -240.5t-301 -97.5q-136 0 -252.5 46t-193.5 133zM393 1434h133l115 -197l197 197h139l-256 -295h-197z" />
<glyph unicode="&#x162;" horiz-adv-x="1181" d="M203 1155l45 211h1067l-45 -211h-414l-256 -1155h-240l256 1155h-413zM260 -496q52 24 98 65.5t64 84.5h-16q-37 0 -64 26t-27 68q0 50 39.5 86.5t87.5 36.5q47 0 79 -31.5t32 -87.5q0 -89 -66 -178.5t-161 -136.5z" />
<glyph unicode="&#x163;" horiz-adv-x="653" d="M-4 -496q52 24 98 65.5t64 84.5h-17q-37 0 -63.5 25.5t-26.5 68.5q0 50 39.5 86.5t87.5 36.5q47 0 79 -31.5t32 -87.5q0 -89 -66 -178.5t-162 -136.5zM86 803l43 186h164l59 271h215l-59 -271h201l-43 -186h-201l-113 -510q-4 -24 -4 -37q0 -42 25 -66t73 -24q46 0 82 27 l13 -173q-61 -45 -156 -45q-124 0 -195 50.5t-71 150.5q0 26 6 64l125 563h-164z" />
<glyph unicode="&#x164;" horiz-adv-x="1181" d="M203 1155l45 211h1067l-45 -211h-414l-256 -1155h-240l256 1155h-413zM584 1786h133l114 -197l197 197h139l-256 -295h-196z" />
<glyph unicode="&#x165;" horiz-adv-x="720" d="M86 803l43 186h164l59 271h215l-59 -271h201l-43 -186h-201l-113 -510q-4 -24 -4 -37q0 -42 25 -66t73 -24q46 0 82 27l13 -173q-61 -45 -156 -45q-124 0 -195 50.5t-71 150.5q0 26 6 64l125 563h-164zM659 1180q52 24 98 65.5t64 83.5h-16q-37 0 -63.5 25.5t-26.5 68.5 q0 50 39.5 86.5t87.5 36.5q47 0 78.5 -31.5t31.5 -87.5q0 -89 -66 -178.5t-161 -136.5z" />
<glyph unicode="&#x166;" horiz-adv-x="1181" d="M199 565l26 127h289l102 463h-413l45 211h1067l-45 -211h-414l-102 -463h286l-26 -127h-289l-125 -565h-240l125 565h-286z" />
<glyph unicode="&#x167;" horiz-adv-x="653" d="M6 444l29 127h164l51 232h-164l43 186h164l59 271h215l-59 -271h201l-43 -186h-201l-51 -232h139l-27 -127h-141l-33 -151q-4 -24 -4 -37q0 -42 25 -66t73 -24q46 0 82 27l13 -173q-61 -45 -156 -45q-124 0 -195 50.5t-71 150.5q0 26 6 64l45 204h-164z" />
<glyph unicode="&#x168;" horiz-adv-x="1474" d="M143 442q0 36 11 99l182 825h244l-183 -821q-8 -48 -8 -74q2 -124 87.5 -204.5t236.5 -80.5q162 0 253 93t130 266l180 821h244l-183 -825q-23 -104 -56 -187.5t-84.5 -155.5t-118.5 -120.5t-159.5 -75.5t-205.5 -27q-272 0 -421 126t-149 341zM635 1499q28 133 86 204 t156 71q41 0 72 -16.5t49.5 -40t35.5 -47t39 -40t49 -16.5q73 0 109 147h119q-57 -274 -244 -274q-41 0 -71.5 16.5t-49.5 40t-35.5 47t-38.5 40t-49 16.5q-73 0 -106 -148h-121z" />
<glyph unicode="&#x169;" horiz-adv-x="1161" d="M86 225q0 32 10 82l152 682h215l-137 -618q-11 -55 -11 -64q0 -71 51 -106t134 -35q69 0 138.5 38.5t125.5 96.5l151 688h215l-219 -989h-215l31 135q-168 -160 -338 -160q-139 0 -221 67t-82 183zM395 1147q28 133 86 203.5t156 70.5q41 0 72 -16.5t50 -39.5t36 -46.5 t39 -40t49 -16.5q72 0 108 147h119q-57 -274 -244 -274q-41 0 -71.5 16.5t-49 39.5t-35 46.5t-38.5 40t-49 16.5q-74 0 -107 -147h-121z" />
<glyph unicode="&#x16a;" horiz-adv-x="1474" d="M143 442q0 36 11 99l182 825h244l-183 -821q-8 -48 -8 -74q2 -124 87.5 -204.5t236.5 -80.5q162 0 253 93t130 266l180 821h244l-183 -825q-23 -104 -56 -187.5t-84.5 -155.5t-118.5 -120.5t-159.5 -75.5t-205.5 -27q-272 0 -421 126t-149 341zM596 1532l29 127h741 l-29 -127h-741z" />
<glyph unicode="&#x16b;" horiz-adv-x="1161" d="M86 225q0 32 10 82l152 682h215l-137 -618q-11 -55 -11 -64q0 -71 51 -106t134 -35q69 0 138.5 38.5t125.5 96.5l151 688h215l-219 -989h-215l31 135q-168 -160 -338 -160q-139 0 -221 67t-82 183zM360 1180l29 127h741l-28 -127h-742z" />
<glyph unicode="&#x16c;" horiz-adv-x="1474" d="M143 442q0 36 11 99l182 825h244l-183 -821q-8 -48 -8 -74q2 -124 87.5 -204.5t236.5 -80.5q162 0 253 93t130 266l180 821h244l-183 -825q-23 -104 -56 -187.5t-84.5 -155.5t-118.5 -120.5t-159.5 -75.5t-205.5 -27q-272 0 -421 126t-149 341zM637 1651l113 84 q69 -138 231 -138q163 0 291 138l84 -84q-81 -85 -185 -133t-213 -48q-107 0 -191.5 48.5t-129.5 132.5z" />
<glyph unicode="&#x16d;" horiz-adv-x="1161" d="M86 225q0 32 10 82l152 682h215l-137 -618q-11 -55 -11 -64q0 -71 51 -106t134 -35q69 0 138.5 38.5t125.5 96.5l151 688h215l-219 -989h-215l31 135q-168 -160 -338 -160q-139 0 -221 67t-82 183zM408 1325l112 84q32 -64 91 -100.5t141 -36.5q163 0 290 137l84 -84 q-81 -84 -184.5 -132t-212.5 -48q-108 0 -192 48t-129 132z" />
<glyph unicode="&#x16e;" horiz-adv-x="1474" d="M143 442q0 36 11 99l182 825h244l-183 -821q-8 -48 -8 -74q2 -124 87.5 -204.5t236.5 -80.5q162 0 253 93t130 266l180 821h244l-183 -825q-23 -104 -56 -187.5t-84.5 -155.5t-118.5 -120.5t-159.5 -75.5t-205.5 -27q-272 0 -421 126t-149 341zM776 1608q0 93 68.5 161 t161.5 68q85 0 137.5 -52.5t52.5 -137.5q0 -93 -68 -161.5t-161 -68.5q-85 0 -138 53t-53 138zM881 1618q0 -41 26.5 -68.5t67.5 -27.5q47 0 82 34t35 80q0 43 -26 70t-69 27q-46 0 -81 -34t-35 -81z" />
<glyph unicode="&#x16f;" horiz-adv-x="1161" d="M86 225q0 32 10 82l152 682h215l-137 -618q-11 -55 -11 -64q0 -71 51 -106t134 -35q69 0 138.5 38.5t125.5 96.5l151 688h215l-219 -989h-215l31 135q-168 -160 -338 -160q-139 0 -221 67t-82 183zM555 1317q0 93 68 161t161 68q85 0 138 -52.5t53 -137.5 q0 -93 -68.5 -161.5t-161.5 -68.5q-85 0 -137.5 53t-52.5 138zM659 1327q0 -41 27 -68.5t68 -27.5q47 0 81.5 34.5t34.5 80.5q0 43 -25.5 69.5t-68.5 26.5q-46 0 -81.5 -34t-35.5 -81z" />
<glyph unicode="&#x170;" horiz-adv-x="1474" d="M143 442q0 36 11 99l182 825h244l-183 -821q-8 -48 -8 -74q2 -124 87.5 -204.5t236.5 -80.5q162 0 253 93t130 266l180 821h244l-183 -825q-23 -104 -56 -187.5t-84.5 -155.5t-118.5 -120.5t-159.5 -75.5t-205.5 -27q-272 0 -421 126t-149 341zM715 1491l250 295h184 l-301 -295h-133zM1014 1491l250 295h184l-301 -295h-133z" />
<glyph unicode="&#x171;" horiz-adv-x="1161" d="M86 225q0 32 10 82l152 682h215l-137 -618q-11 -55 -11 -64q0 -71 51 -106t134 -35q69 0 138.5 38.5t125.5 96.5l151 688h215l-219 -989h-215l31 135q-168 -160 -338 -160q-139 0 -221 67t-82 183zM477 1139l250 295h184l-301 -295h-133zM776 1139l250 295h184l-301 -295 h-133z" />
<glyph unicode="&#x172;" horiz-adv-x="1474" d="M143 442q0 36 11 99l182 825h244l-183 -821q-8 -48 -8 -74q2 -124 87.5 -204.5t236.5 -80.5q162 0 253 93t130 266l180 821h244l-183 -825q-47 -216 -148.5 -354t-277.5 -187q-200 -88 -200 -211q0 -35 22 -54.5t58 -19.5q60 0 104 76l78 -63q-80 -109 -191 -109 q-79 0 -130.5 40t-51.5 112q0 118 100 204q-266 3 -411.5 128.5t-145.5 338.5z" />
<glyph unicode="&#x173;" horiz-adv-x="1161" d="M86 225q0 32 10 82l152 682h215l-137 -618q-11 -55 -11 -64q0 -71 51 -106t134 -35q69 0 138.5 38.5t125.5 96.5l151 688h215l-219 -989q-200 -88 -200 -211q0 -35 22 -54.5t58 -19.5q60 0 104 76l78 -63q-80 -109 -191 -109q-79 0 -130.5 40t-51.5 112q0 135 133 229 h-37l31 135q-168 -160 -338 -160q-139 0 -221 67t-82 183z" />
<glyph unicode="&#x174;" horiz-adv-x="1849" d="M205 1366h260l35 -1051l514 1051h190l51 -1051l498 1051h275l-693 -1366h-256l-43 1010l-487 -1010h-256zM854 1491l256 295h197l131 -295h-131l-117 199l-195 -199h-141z" />
<glyph unicode="&#x175;" horiz-adv-x="1546" d="M119 989h217l49 -719l395 719h189l75 -719l369 719h232l-527 -989h-225l-72 725l-389 -725h-225zM623 1139l256 295h196l131 -295h-131l-117 198l-194 -198h-141z" />
<glyph unicode="&#x176;" horiz-adv-x="1304" d="M195 1366h260l245 -584l504 584h289l-705 -799l-124 -567h-240l125 567zM584 1491l256 295h196l131 -295h-131l-116 199l-195 -199h-141z" />
<glyph unicode="&#x177;" horiz-adv-x="1030" d="M-96 -379l71 189q39 -17 101 -17q40 0 70.5 18.5t62.5 63.5l78 119l-183 995h224l123 -741l454 741h238l-737 -1167q-73 -119 -156 -171t-195 -52q-87 0 -151 22zM367 1139l256 295h196l131 -295h-131l-117 198l-194 -198h-141z" />
<glyph unicode="&#x178;" horiz-adv-x="1304" d="M195 1366h260l245 -584l504 584h289l-705 -799l-124 -567h-240l125 567zM567 1585q0 53 40.5 93t94.5 40q44 0 75.5 -31t31.5 -75q0 -53 -41 -93t-94 -40q-46 0 -76.5 30t-30.5 76zM995 1585q0 53 40.5 93t94.5 40q44 0 75.5 -31t31.5 -75q0 -53 -41 -93t-94 -40 q-46 0 -76.5 30t-30.5 76z" />
<glyph unicode="&#x179;" horiz-adv-x="1206" d="M-20 0l43 195l897 960h-684l47 211h1009l-43 -192l-897 -963h699l-45 -211h-1026zM664 1491l352 295h209l-404 -295h-157z" />
<glyph unicode="&#x17a;" horiz-adv-x="974" d="M-16 0l36 164l621 639h-479l43 186h776l-35 -155l-631 -646h494l-39 -188h-786zM471 1139l352 295h209l-403 -295h-158z" />
<glyph unicode="&#x17b;" horiz-adv-x="1206" d="M-20 0l43 195l897 960h-684l47 211h1009l-43 -192l-897 -963h699l-45 -211h-1026zM717 1585q0 53 40.5 93t94.5 40q46 0 77.5 -30.5t31.5 -75.5q0 -54 -42 -94.5t-96 -40.5q-46 0 -76 31t-30 77z" />
<glyph unicode="&#x17c;" horiz-adv-x="974" d="M-16 0l36 164l621 639h-479l43 186h776l-35 -155l-631 -646h494l-39 -188h-786zM535 1255q0 53 40.5 93.5t94.5 40.5q46 0 77 -30.5t31 -76.5q0 -54 -41.5 -94.5t-95.5 -40.5q-46 0 -76 31t-30 77z" />
<glyph unicode="&#x17d;" horiz-adv-x="1206" d="M-20 0l43 195l897 960h-684l47 211h1009l-43 -192l-897 -963h699l-45 -211h-1026zM596 1786h133l115 -197l196 197h140l-256 -295h-197z" />
<glyph unicode="&#x17e;" horiz-adv-x="974" d="M-16 0l36 164l621 639h-479l43 186h776l-35 -155l-631 -646h494l-39 -188h-786zM389 1434h133l115 -197l197 197h139l-256 -295h-197z" />
<glyph unicode="&#x17f;" horiz-adv-x="632" d="M82 0l176 803h-164l43 186h162l12 58q82 339 353 339q157 0 249 -92l-110 -129q-45 45 -117 45q-66 0 -103.5 -40.5t-56.5 -125.5l-229 -1044h-215z" />
<glyph unicode="&#x192;" horiz-adv-x="911" d="M-80 -330l184 832h-122v190h163l84 373q34 152 120 236.5t226 84.5q162 0 259 -92l-97 -166q-39 48 -110 48q-61 0 -104 -41.5t-60 -116.5l-72 -326h254v-190h-295l-186 -832h-244z" />
<glyph unicode="&#x1fc;" horiz-adv-x="1966" d="M-115 0l1141 1366h1032l-45 -211h-696l-78 -352h682l-47 -211h-682l-84 -381h696l-47 -211h-936l58 264h-496l-215 -264h-283zM543 475h383l141 637zM1106 1491l352 295h209l-403 -295h-158z" />
<glyph unicode="&#x1fd;" horiz-adv-x="1892" d="M66 385q0 116 36 228t100.5 201.5t164.5 144.5t219 55q106 0 191.5 -44t135.5 -122l31 141h215l-31 -137q142 162 324 162q179 0 275 -110.5t96 -311.5q0 -87 -21 -168h-758q-2 -6 -2 -33q0 -94 78.5 -164.5t220.5 -70.5q71 0 139.5 22t118.5 62l70 -156 q-71 -50 -158 -79.5t-165 -29.5q-144 0 -233.5 60t-129.5 160l-43 -195h-215l31 131q-131 -156 -312 -156q-170 0 -274 109t-104 301zM291 428q0 -118 68.5 -190t175.5 -72q76 0 144.5 39.5t115.5 101.5l84 383q-35 59 -104 96t-157 37q-94 0 -170 -56t-116.5 -146 t-40.5 -193zM854 1139l352 295h209l-403 -295h-158zM1067 578h561q0 3 1 13t1 13q0 103 -64.5 168.5t-189.5 65.5q-115 0 -202.5 -77t-106.5 -183z" />
<glyph unicode="&#x1fe;" horiz-adv-x="1566" d="M78 0l172 182q-146 159 -146 400q0 223 104 408.5t284 292t397 106.5q227 0 395 -111l84 88h178l-162 -170q158 -164 158 -412q0 -222 -103 -408t-283 -293.5t-396 -107.5q-243 0 -414 121l-90 -96h-178zM356 596q0 -136 64 -234l702 744q-109 70 -250 70 q-105 0 -200.5 -44.5t-164.5 -121t-110 -185t-41 -229.5zM510 268q106 -80 262 -80q105 0 200.5 44.5t165.5 121t111 185t41 229.5q0 150 -73 248zM848 1491l352 295h209l-403 -295h-158z" />
<glyph unicode="&#x1ff;" horiz-adv-x="1175" d="M-12 0l159 152q-79 110 -79 270q0 115 42.5 222.5t115.5 189.5t179 131t226 49q187 0 317 -99l76 74h150l-154 -147q84 -117 84 -273q0 -115 -42.5 -223t-115.5 -190t-179 -131.5t-226 -49.5q-196 0 -324 101l-80 -76h-149zM291 430q0 -71 20 -121l482 459 q-68 55 -170 55q-142 0 -237 -118t-95 -275zM373 223q66 -57 176 -57q94 0 171.5 56.5t119 146t41.5 190.5q0 69 -25 127zM571 1139l353 295h209l-404 -295h-158z" />
<glyph unicode="&#x218;" horiz-adv-x="1239" d="M31 227l151 174q71 -98 193.5 -155.5t263.5 -57.5q63 0 112.5 18t78 47.5t43 63t14.5 68.5q0 45 -37 81.5t-96.5 63t-131 53t-143 59.5t-131 73.5t-96.5 104t-37 143.5q0 82 37 159t102 136t163 95t212 36q160 0 298.5 -58.5t223.5 -161.5l-153 -172q-70 88 -180 134.5 t-224 46.5q-95 0 -160 -52t-65 -122q0 -42 37 -76t96.5 -60t131 -52.5t143 -60.5t131 -75.5t96.5 -105.5t37 -144q0 -90 -35.5 -171.5t-100 -145t-164.5 -101t-220 -37.5q-190 0 -350.5 70t-239.5 182zM285 -496q52 24 97.5 65.5t63.5 84.5h-16q-37 0 -63.5 25.5t-26.5 68.5 q0 50 39.5 86.5t87.5 36.5q47 0 79 -31.5t32 -87.5q0 -89 -66 -178.5t-162 -136.5z" />
<glyph unicode="&#x219;" horiz-adv-x="976" d="M-8 154l127 147q47 -60 141.5 -107t196.5 -47q82 0 131 39t49 95q0 31 -28 56.5t-73.5 43.5t-100 36.5t-109 42t-100 52.5t-73.5 75.5t-28 104.5q0 134 106 228t287 94q123 0 231 -44.5t173 -115.5l-117 -143q-35 53 -119 93t-174 40q-80 0 -126 -33t-46 -84 q0 -29 28 -52.5t73 -41.5t99.5 -36.5t109 -43t99.5 -54.5t73 -78t28 -108q0 -143 -111 -240.5t-301 -97.5q-136 0 -252.5 46t-193.5 133zM158 -496q52 24 97.5 65.5t63.5 84.5h-16q-37 0 -63.5 25.5t-26.5 68.5q0 50 39.5 86.5t87.5 36.5q47 0 79 -31.5t32 -87.5 q0 -89 -66 -178.5t-162 -136.5z" />
<glyph unicode="&#x2c6;" horiz-adv-x="583" d="M141 1139l256 295h197l131 -295h-131l-117 198l-194 -198h-142z" />
<glyph unicode="&#x2da;" horiz-adv-x="417" d="M182 1317q0 93 68.5 161t161.5 68q85 0 137.5 -52.5t52.5 -137.5q0 -93 -68 -161.5t-161 -68.5q-85 0 -138 53t-53 138zM287 1327q0 -41 26.5 -68.5t67.5 -27.5q47 0 82 34.5t35 80.5q0 43 -26 69.5t-69 26.5q-46 0 -81 -34t-35 -81z" />
<glyph unicode="&#x2dc;" horiz-adv-x="657" d="M143 1147q28 133 86 203.5t156 70.5q41 0 72 -16.5t50 -39.5t36 -46.5t39 -40t49 -16.5q72 0 108 147h119q-57 -274 -244 -274q-41 0 -71.5 16.5t-49 39.5t-35 46.5t-38.5 40t-49 16.5q-74 0 -107 -147h-121z" />
<glyph unicode="&#x394;" horiz-adv-x="1378" d="M-109 0l840 1366h299l236 -1366h-1375zM291 211h692l-143 915z" />
<glyph unicode="&#x3a9;" horiz-adv-x="1566" d="M12 0l45 211h295q-229 182 -229 457q0 133 52.5 261t147.5 231t242 166t322 63q188 0 336.5 -67.5t235.5 -199.5t87 -309q0 -199 -111 -350t-294 -252h241l-47 -211h-524l18 90l27 121q190 41 311 197t121 362q0 184 -111 294t-300 110q-151 0 -271.5 -81.5t-184 -212 t-63.5 -280.5q0 -137 60.5 -234.5t165.5 -154.5l-27 -121l-20 -90h-525z" />
<glyph unicode="&#x3bc;" horiz-adv-x="1161" d="M-55 -377l303 1366h215l-146 -659q-10 -89 31.5 -127.5t130.5 -38.5q76 0 152 38t131 93l153 694h215l-219 -989h-215l29 131q-75 -66 -175 -111t-208 -45q-52 0 -102 13l-80 -365h-215z" />
<glyph unicode="&#x3c0;" horiz-adv-x="1218" d="M96 0l185 834h-150l41 190h1104l-41 -190h-148l-184 -834h-217l184 834h-372l-185 -834h-217z" />
<glyph unicode="&#x2000;" horiz-adv-x="918" />
<glyph unicode="&#x2001;" horiz-adv-x="1837" />
<glyph unicode="&#x2002;" horiz-adv-x="918" />
<glyph unicode="&#x2003;" horiz-adv-x="1837" />
<glyph unicode="&#x2004;" horiz-adv-x="612" />
<glyph unicode="&#x2005;" horiz-adv-x="459" />
<glyph unicode="&#x2006;" horiz-adv-x="306" />
<glyph unicode="&#x2007;" horiz-adv-x="306" />
<glyph unicode="&#x2008;" horiz-adv-x="229" />
<glyph unicode="&#x2009;" horiz-adv-x="367" />
<glyph unicode="&#x200a;" horiz-adv-x="102" />
<glyph unicode="&#x2010;" horiz-adv-x="614" d="M41 403l39 185h491l-39 -185h-491z" />
<glyph unicode="&#x2011;" horiz-adv-x="614" d="M41 403l39 185h491l-39 -185h-491z" />
<glyph unicode="&#x2012;" horiz-adv-x="614" d="M41 403l39 185h491l-39 -185h-491z" />
<glyph unicode="&#x2013;" horiz-adv-x="1214" d="M41 403l39 185h1091l-38 -185h-1092z" />
<glyph unicode="&#x2014;" horiz-adv-x="1705" d="M41 403l39 185h1583l-39 -185h-1583z" />
<glyph unicode="&#x2018;" horiz-adv-x="501" d="M203 1012q0 106 78 212.5t194 164.5l80 -84q-60 -28 -113.5 -75t-74.5 -97h20q45 0 77 -31t32 -84q0 -62 -47.5 -108t-108.5 -46q-58 0 -97.5 39.5t-39.5 108.5z" />
<glyph unicode="&#x2019;" horiz-adv-x="501" d="M213 948q60 28 113.5 75t74.5 97q-4 -2 -20 -2q-45 0 -77 32t-32 85q0 62 47.5 106.5t108.5 44.5q59 0 98 -38t39 -107q0 -107 -78 -214t-194 -163z" />
<glyph unicode="&#x201a;" horiz-adv-x="501" d="M-37 -176q60 29 114.5 76t74.5 96h-19q-46 0 -78 31.5t-32 85.5q0 62 48 106.5t109 44.5q57 0 97 -38t40 -107q0 -107 -79 -214t-195 -165z" />
<glyph unicode="&#x201c;" horiz-adv-x="880" d="M211 1012q0 106 78 212.5t194 164.5l80 -84q-60 -28 -113.5 -75t-74.5 -97h20q45 0 77 -31t32 -84q0 -62 -47.5 -108t-108.5 -46q-58 0 -97.5 39.5t-39.5 108.5zM588 1012q0 106 79 212.5t195 164.5l80 -84q-60 -28 -113.5 -75t-74.5 -97h18q47 0 79 -31t32 -84 q0 -62 -48.5 -108t-109.5 -46q-57 0 -97 39.5t-40 108.5z" />
<glyph unicode="&#x201d;" horiz-adv-x="880" d="M213 948q60 28 113.5 75t74.5 97q-4 -2 -20 -2q-45 0 -77 32t-32 85q0 62 47.5 106.5t108.5 44.5q59 0 98 -38t39 -107q0 -107 -78 -214t-194 -163zM590 948q60 28 113.5 75t74.5 97q-4 -2 -18 -2q-46 0 -78.5 32t-32.5 85q0 62 48.5 106.5t109.5 44.5q57 0 97 -38 t40 -107q0 -107 -79 -214t-195 -163z" />
<glyph unicode="&#x201e;" horiz-adv-x="880" d="M-37 -176q60 29 114.5 76t74.5 96h-19q-46 0 -78 31.5t-32 85.5q0 62 48 106.5t109 44.5q57 0 97 -38t40 -107q0 -107 -79 -214t-195 -165zM342 -176q60 28 113.5 75t74.5 97h-20q-45 0 -77 32t-32 85q0 62 47.5 106.5t108.5 44.5q59 0 98 -38t39 -107q0 -107 -78 -214 t-194 -165z" />
<glyph unicode="&#x2020;" horiz-adv-x="555" d="M170 1077l25 111l182 -6l37 204h121l-54 -204l183 6l-25 -111l-180 8l-84 -415h-121l100 415z" />
<glyph unicode="&#x2021;" horiz-adv-x="555" d="M57 569l25 111l180 -8l92 413l-184 -8l25 111l180 -6l39 204h121l-54 -204l183 6l-25 -111l-180 8l-92 -413l184 8l-25 -111l-180 6l-39 -206h-121l56 206z" />
<glyph unicode="&#x2022;" horiz-adv-x="733" d="M131 475q0 104 78.5 179t183.5 75q89 0 149 -60t60 -149q0 -104 -77.5 -180t-182.5 -76q-91 0 -151 60t-60 151z" />
<glyph unicode="&#x2026;" horiz-adv-x="1505" d="M25 111q0 63 46 108t109 45q55 0 93 -38.5t38 -92.5q0 -64 -46 -110t-111 -46q-54 0 -91.5 39t-37.5 95zM526 111q0 63 46.5 108t109.5 45q55 0 93 -38.5t38 -92.5q0 -64 -46.5 -110t-111.5 -46q-54 0 -91.5 39t-37.5 95zM1028 111q0 63 46.5 108t109.5 45q55 0 93 -38.5 t38 -92.5q0 -64 -46.5 -110t-111.5 -46q-54 0 -91.5 39t-37.5 95z" />
<glyph unicode="&#x202f;" horiz-adv-x="367" />
<glyph unicode="&#x2030;" horiz-adv-x="2265" d="M154 0l1173 1366h139l-1175 -1366h-137zM172 989q0 115 52.5 207t137 141t183.5 49q134 0 226.5 -76.5t92.5 -203.5q0 -173 -110 -285t-262 -112q-133 0 -226.5 77.5t-93.5 202.5zM332 1004q0 -68 46 -113t118 -45q87 0 148 69.5t61 176.5q0 69 -46 114t-118 45 q-86 0 -147.5 -70t-61.5 -177zM745 256q0 174 109.5 285.5t263.5 111.5q134 0 226 -76.5t92 -203.5q0 -173 -110 -285.5t-263 -112.5q-133 0 -225.5 77.5t-92.5 203.5zM903 270q0 -68 47 -112.5t119 -44.5q86 0 147.5 69.5t61.5 175.5q0 69 -47 114.5t-119 45.5 q-85 0 -147 -71t-62 -177zM1481 256q0 174 109 285.5t263 111.5q134 0 226 -76.5t92 -203.5q0 -173 -110 -285.5t-263 -112.5q-133 0 -225 77.5t-92 203.5zM1638 270q0 -68 47 -112.5t119 -44.5q86 0 147.5 69.5t61.5 175.5q0 69 -47 114.5t-119 45.5q-85 0 -147 -71 t-62 -177z" />
<glyph unicode="&#x2039;" horiz-adv-x="655" d="M59 498l410 362h213l-418 -373l238 -358h-197z" />
<glyph unicode="&#x203a;" horiz-adv-x="655" d="M-23 129l418 373l-237 358h196l246 -368l-410 -363h-213z" />
<glyph unicode="&#x2044;" horiz-adv-x="309" d="M-463 0l1176 1366h137l-1176 -1366h-137z" />
<glyph unicode="&#x205f;" horiz-adv-x="459" />
<glyph unicode="&#x20a1;" horiz-adv-x="1413" d="M119 582q0 178 64.5 331t172.5 256t250 161.5t297 58.5q53 0 125 -11l109 195h135l-125 -225q61 -20 119 -56l155 281h135l-196 -354q81 -81 129 -189l-229 -82q-20 40 -25 47l-449 -807q93 0 183 41.5t159 116.5l183 -129q-72 -85 -168.5 -141t-187 -78.5t-181.5 -22.5 q-44 0 -102 7l-103 -187h-135l117 211q-60 17 -123 49l-143 -260h-135l180 326q-100 80 -155.5 198t-55.5 263zM371 596q0 -149 80 -256l464 834q-4 0 -12 1t-12 1q-102 0 -196.5 -43t-166 -118t-114.5 -184.5t-43 -234.5zM541 256q46 -33 121 -53l491 887q-49 40 -115 63z " />
<glyph unicode="&#x20a3;" horiz-adv-x="1171" d="M-39 248l29 127h147l219 991h936l-45 -211h-696l-78 -352h682l-47 -211h-682l-49 -217h356l-28 -127h-355l-55 -248h-240l54 248h-148z" />
<glyph unicode="&#x20a4;" horiz-adv-x="1097" d="M18 156q108 45 189 120.5t108 161.5h-284l24 117h271q-7 54 -39 123h-203l25 117h116q-32 76 -32 149q0 118 69.5 220t189.5 162t261 60q108 0 201.5 -30.5t160.5 -90t92 -139.5l-215 -92q-17 71 -80 113.5t-149 42.5q-113 0 -192.5 -75.5t-79.5 -194.5q0 -60 28 -125 h369l-25 -117h-286q20 -55 20 -109v-14h238l-25 -117h-246q-29 -61 -77 -112.5t-97 -79.5q47 16 94 16q64 0 158.5 -38t149.5 -38q94 0 176 78l53 -190q-101 -101 -246 -101q-77 0 -156.5 23.5t-152 46.5t-131.5 23q-100 0 -232 -80z" />
<glyph unicode="&#x20a6;" horiz-adv-x="1513" d="M14 483l29 127h145l35 160h-143l26 127h146l104 469h246l238 -469h356l104 469h240l-104 -469h141l-27 -127h-143l-35 -160h141l-28 -127h-139l-107 -483h-231l-242 483h-365l-106 -483h-240l107 483h-148zM430 610h272l-188 379zM903 770l184 -362l80 362h-264z" />
<glyph unicode="&#x20a7;" horiz-adv-x="1355" d="M55 0l193 874h-146l29 130h145l80 362h586q156 0 262.5 -106t108.5 -256h141l-29 -130h-129q-19 -71 -57.5 -133t-101 -115t-158 -83.5t-213.5 -30.5h-358l-113 -512h-240zM455 723h325q96 0 164 41t98 110h-555zM516 1004h545q-11 66 -64.5 108.5t-128.5 42.5h-317z" />
<glyph unicode="&#x20a8;" horiz-adv-x="2148" d="M35 0l301 1366h549q79 0 152.5 -26t130 -72.5t90.5 -118t34 -156.5q0 -185 -115.5 -314.5t-297.5 -152.5l215 -526h-267l-190 510h-250l-113 -510h-239zM434 721h326h2q130 0 205 71t75 179q0 79 -59.5 131.5t-138.5 52.5h-314zM1174 154l126 147q47 -60 141.5 -107 t196.5 -47q82 0 131.5 39t49.5 95q0 31 -28 56.5t-73.5 43.5t-100 36.5t-109 42t-100 52.5t-73.5 75.5t-28 104.5q0 134 106 228t287 94q122 0 230 -44.5t173 -115.5l-116 -143q-35 53 -119 93t-174 40q-80 0 -126 -33t-46 -84q0 -29 28 -52.5t73 -41.5t99.5 -36.5t109 -43 t99.5 -54.5t73 -78t28 -108q0 -143 -111 -240.5t-301 -97.5q-136 0 -252.5 46t-193.5 133z" />
<glyph unicode="&#x20a9;" horiz-adv-x="1849" d="M29 483l28 127h197l-10 160h-152l27 127h117l-31 469h260l14 -469h305l230 469h190l23 -469h303l223 469h275l-238 -469h108l-26 -127h-148l-79 -160h190l-29 -127h-227l-244 -483h-256l-20 483h-277l-233 -483h-256l-31 483h-233zM483 770l17 -455l221 455h-238z M844 610h209l-17 400zM1233 770l22 -455l215 455h-237z" />
<glyph unicode="&#x20aa;" horiz-adv-x="1710" d="M29 0l247 1126h476q99 0 178.5 -18t144 -57t100 -107t35.5 -162q0 -55 -16 -141l-64 -293h-204l65 297q10 42 10 88q0 102 -63.5 154.5t-175.5 52.5h-320l-209 -940h-204zM436 0l170 776h205l-131 -590h395q122 0 185.5 66.5t95.5 208.5l147 665h205l-152 -684 q-24 -111 -57.5 -188t-88 -136.5t-136.5 -88.5t-195 -29h-643z" />
<glyph unicode="&#x20ac;" horiz-adv-x="1439" d="M45 471l31 139h82q3 73 16 150h-65l32 139h74q90 225 289 357.5t438 132.5q217 0 366 -99t220 -260l-230 -82q-48 112 -145.5 170t-222.5 58q-136 0 -256 -74.5t-191 -202.5h576l-31 -139h-598q-20 -78 -20 -150h585l-30 -139h-539q36 -130 140.5 -206.5t258.5 -76.5 q93 0 183 41.5t159 116.5l183 -129q-72 -85 -168.5 -141t-187 -78.5t-181.5 -22.5q-253 0 -431 134.5t-216 361.5h-121z" />
<glyph unicode="&#x2122;" horiz-adv-x="929" d="M215 1313l10 53h312l-11 -53h-127l-88 -398h-57l88 398h-127zM512 915l98 451h88l60 -328l203 328h88l-99 -451h-57l82 373l-236 -373h-16l-72 373l-82 -373h-57z" />
<glyph unicode="&#x25fc;" horiz-adv-x="993" d="M0 0v993h993v-993h-993z" />
</font>
</defs>
</svg>
